<?xml version="1.0" standalone="no"?>
<!DOCTYPE svg PUBLIC "-//W3C//DTD SVG 1.1//EN" "http://www.w3.org/Graphics/SVG/1.1/DTD/svg11.dtd" >
<svg xmlns="http://www.w3.org/2000/svg">
<metadata>Generated by IcoMoon</metadata>
<defs>
<font id="lscustom" horiz-adv-x="1024">
<font-face units-per-em="1024" ascent="960" descent="-64" />
<missing-glyph horiz-adv-x="1024" />
<glyph unicode="&#x20;" horiz-adv-x="512" d="" />
<glyph unicode="&#xe900;" glyph-name="Hood" d="M0 800.254v-100.577c57.75-116.992 88.276-247.621 88.276-378.085v-74.682l117.974-65.56-95.413 588.413c-59.121 12.888-96.5 25.283-110.836 30.491v0zM459.031 97.989c11.491-1.147 23.318-1.837 35.309-2.242v635.3c-11.878 0.086-23.835 0.155-35.309 0.406v-633.465zM245.552 159.73c21.534-11 89.155-42.621 178.173-57.086v629.991c-114.56 4.344-206.741 16.491-275.896 29.611l97.724-602.516zM247.173 713.193v-35.31h-35.31v35.31h35.31zM529.655 95.747c11.992 0.405 23.819 1.094 35.31 2.224v633.482c-11.474-0.251-23.43-0.32-35.31-0.406v-635.3zM600.273 732.632v-630.007c89.318 14.466 156.862 46.155 178.173 57.086l97.706 602.516c-69.138-13.102-161.318-25.267-275.877-29.595zM776.824 677.884v35.31h35.31v-35.31h-35.31zM913.163 769.763l-95.43-588.413 117.992 65.56v74.682c0 130.466 30.525 261.094 88.275 378.085v100.577c-14.336-5.208-51.715-17.603-110.837-30.491z" />
<glyph unicode="&#xe901;" glyph-name="Horn" d="M1018.118 911.707l-42.426 42.426-84.849-84.85 42.426-42.427 84.849 84.85zM906.169 707.765l11.766-58.831 106.065 21.211-11.765 58.831-106.067-21.211zM734.132 959.995l-21.213-106.066 58.831-11.765 21.213 106.066-58.831 11.765zM551.416 869.25c-23.434-23.43-23.434-61.419 0-84.85l296.98-296.98c23.43-23.43 61.42-23.43 84.851 0l42.425 42.425-381.83 381.828-42.425-42.423zM307.277-11.275c55.337 55.338 66.423 137.48 34.631 204.335l145.871 145.871-84.851 84.849-145.874-145.871c-66.86 31.789-148.998 20.706-204.335-34.631-70.293-70.293-70.293-184.258 0-254.55 70.293-70.298 184.263-70.298 254.558-0.003zM542.056 708.907c-2.768-90.36-36.993-175.118-97.363-242.043l86.169-86.168c66.924 60.369 151.677 94.593 242.043 97.361l-230.849 230.849z" />
<glyph unicode="&#xe902;" glyph-name="Xenon" d="M512 812.501c-17.664 0-32 14.336-32 32v83.499c0 17.664 14.336 32 32 32s32-14.336 32-32v-83.499c0-17.664-14.336-32-32-32zM792.363 696.363c-8.192 0-16.384 3.115-22.613 9.387-12.501 12.501-12.501 32.768 0 45.269l59.051 59.051c12.501 12.501 32.768 12.501 45.269 0s12.501-32.768 0-45.269l-59.051-59.051c-6.272-6.229-14.464-9.387-22.656-9.387zM992 416h-83.499c-17.664 0-32 14.336-32 32s14.336 32 32 32h83.499c17.664 0 32-14.336 32-32s-14.336-32-32-32zM851.413 76.587c-8.192 0-16.384 3.115-22.613 9.387l-59.051 59.051c-12.501 12.501-12.501 32.768 0 45.269s32.768 12.501 45.269 0l59.051-59.051c12.501-12.501 12.501-32.768 0-45.269-6.272-6.272-14.464-9.387-22.656-9.387zM172.587 76.587c-8.192 0-16.384 3.115-22.613 9.387-12.501 12.501-12.501 32.768 0 45.269l59.051 59.051c12.501 12.501 32.768 12.501 45.269 0s12.501-32.768 0-45.269l-59.051-59.051c-6.272-6.272-14.464-9.387-22.656-9.387zM115.499 416h-83.499c-17.664 0-32 14.336-32 32s14.336 32 32 32h83.499c17.664 0 32-14.336 32-32s-14.336-32-32-32zM231.637 696.363c-8.192 0-16.384 3.115-22.613 9.387l-59.051 59.051c-12.501 12.501-12.501 32.768 0 45.269s32.768 12.501 45.269 0l59.051-59.051c12.501-12.501 12.501-32.768 0-45.269-6.315-6.229-14.464-9.387-22.656-9.387zM640 64v-53.333c0-40.96-33.707-74.667-74.667-74.667h-106.667c-35.84 0-74.667 27.307-74.667 87.040v40.96zM700.16 680.107c-69.973 56.747-162.133 78.933-252.16 59.733-113.067-23.467-204.8-115.627-228.267-228.693-23.893-116.053 19.627-231.253 112.64-301.653 25.173-18.773 42.667-47.787 48.64-81.493v-0.427c0.853 0.427 2.133 0.427 2.987 0.427h256c0.853 0 1.28 0 2.133-0.427v0.427c5.973 32.427 25.173 62.293 54.613 85.333 72.107 57.173 113.92 142.507 113.92 234.667 0 90.453-40.107 174.933-110.507 232.107zM672 426.667c-17.493 0-32 14.507-32 32 0 64.853-52.48 117.333-117.333 117.333-17.493 0-32 14.507-32 32s14.507 32 32 32c99.84 0 181.333-81.493 181.333-181.333 0-17.493-14.507-32-32-32zM381.013 128h2.987c-0.853 0-2.133 0-2.987-0.427zM642.133 128v-0.427c-0.853 0.427-1.28 0.427-2.133 0.427z" />
<glyph unicode="&#xe903;" glyph-name="Color1" d="M1023.998 508.018c0 51.517-33.784 135.125-103.285 255.598-49.648 86.070-125.235 196.384-125.235 196.384s-92.568-135.328-158.798-259.126c17.766-27.89 39.342-62.787 61.042-100.406 75.758-131.322 111.042-221.749 111.042-284.579 0-12.232-0.773-24.286-2.269-36.12 120.912 5.768 217.504 105.938 217.504 228.25zM750.77 315.888c0 51.515-33.784 135.123-103.283 255.597-49.651 86.070-125.237 196.382-125.237 196.382s-90.68-132.562-156.659-255.051c13.312-21.339 26.536-43.131 38.411-63.717 75.758-131.328 111.042-221.754 111.042-284.579 0-26.467-3.624-52.101-10.371-76.446 5.84-0.453 11.702-0.707 17.576-0.707 126.006 0 228.522 102.514 228.522 228.522zM457.042 164.52c0 51.517-33.784 135.123-103.283 255.598-49.65 86.069-125.238 196.381-125.238 196.381s-75.588-110.312-125.238-196.381c-69.496-120.475-103.282-204.082-103.282-255.598 0-126.006 102.514-228.52 228.522-228.52 126.006 0 228.52 102.514 228.52 228.52z" />
<glyph unicode="&#xe904;" glyph-name="SideSkirt" d="M17.625 352.543h36.859c8.863 54.699 52.832 94.605 104.242 94.605s95.378-39.907 104.242-94.605h532.321c6.714 42.158 34.675 76.743 72.444 89.621 37.769 12.88 79.025 1.894 106.937-28.455 57.677 49.159 77.072 110.325-10.055 125.562-15.692 2.716-31.567 3.985-47.44 3.806-48.284 1.017-95.611-14.594-135.114-44.587-24.142-18.274-44.266-42.086-58.917-69.74h-70.558l47.275 42.498c4.846 4.359 7.177 11.183 6.118 17.899-1.057 6.717-5.374 12.308-11.293 14.666s-12.551 1.125-17.411-3.234l-80.431-71.83h-261.73c-40.381 73.67-114.841 117.541-194.014 114.327-36.594 2.305-73.089-5.842-105.829-23.633-19.38-9.771-32.707-29.655-35.271-52.591v-95.267c0-10.504 7.887-19.043 17.627-19.043z" />
<glyph unicode="&#xe905;" glyph-name="Roof" d="M768.002 376.001l13.304 247.71c4.786 3.912 8.026 9.619 8.026 16.29v170.666c0.003 11.792-9.539 21.334-21.331 21.334h-3.010c-6.096 26.070-21.656 49.196-44.491 64.416l-68.52 45.668c-17.584 11.708-38.042 17.916-59.146 17.916h-161.666c-21.106 0-41.565-6.208-59.168-17.916l-68.501-45.666c-22.834-15.222-38.389-38.348-44.485-64.418h-3.014c-11.792 0-21.334-9.542-21.334-21.334v-170.666c0-6.67 3.24-12.378 8.026-16.29l13.307-325.044c-0.43 10.528-0.434 10.595 0 0 0.002-13.443 0.002-12.805 0 0l0.002-21.334c-11.792 0-21.334-9.541-21.334-21.333v-170.667c0-11.792 9.542-21.333 21.334-21.333h2.155c10.464-72.178 72.149-128 147.179-128h213.333c75.029 0 136.715 55.822 147.179 128h2.154c11.792 0 21.334 9.541 21.334 21.333v170.669c0 11.792-9.542 21.334-21.334 21.334v285.666l0.002-187c-8-8-10.104-6.125 0 0 0 14.437 0-16 0 0zM360.896 726.417c7.834 12.666 21.395 20.25 36.291 20.25h229.624c14.896 0 28.459-7.584 36.293-20.25s8.542-28.166 1.875-41.501l-42.666-85.333c-7.272-14.541-21.898-23.582-38.168-23.582h-144.291c-16.27 0-30.896 9.042-38.166 23.584l-42.666 85.334c-6.669 13.331-5.96 28.832 1.874 41.498zM298.666 333.18v255.32l42.666-42.666v-191.334l-42.666-21.32zM676.416 155.585c-2-2-50.23-48.915-164.416-48.915s-162.416 46.915-164.416 48.915c-6.501 6.499-8.104 16.416-4 24.626l42.666 85.334c5.27 10.458 18.126 14.709 28.562 9.584 0.376-0.211 39.563-19.128 97.189-19.128 58.291 0 96.75 18.875 97.123 19.083 5.085 2.542 10.877 2.877 16.293 1.166 5.354-1.792 9.792-5.666 12.334-10.707l42.666-85.334c4.104-8.208 2.499-18.125-4-24.624zM725.335 333.18l-42.667 21.32v191.334l42.667 42.666v-255.32z" />
<glyph unicode="&#xe906;" glyph-name="Suspension" d="M759.172 818.759c19.502 0 35.31 15.808 35.31 35.31s-15.808 35.31-35.31 35.31c-19.502 0-35.31-15.809-35.31-35.31s15.808-35.31 35.31-35.31zM713.799 758.484l10.063-4.802v-40.854h70.621v40.854l10.063 4.785c36.793 17.514 60.557 55.031 60.557 95.603 0 58.421-47.51 105.931-105.931 105.931s-105.931-47.51-105.931-105.931c0-40.572 23.764-78.089 60.557-95.585zM759.172 924.69c38.947 0 70.621-31.673 70.621-70.621s-31.673-70.621-70.621-70.621c-38.947 0-70.621 31.673-70.621 70.621s31.673 70.621 70.621 70.621zM812.138 677.517h-105.931c-9.728 0-17.655-7.91-17.655-17.655v-335.448c0-9.746 7.927-17.655 17.655-17.655h105.931c9.728 0 17.655 7.91 17.655 17.655v335.448c0 9.746-7.927 17.655-17.655 17.655zM804.546 137.516l-10.063 4.802v129.13h-70.621v-129.13l-10.063-4.785c-36.793-17.514-60.557-55.031-60.557-95.603 0-58.421 47.51-105.931 105.931-105.931s105.931 47.51 105.931 105.931c0 40.572-23.764 78.089-60.557 95.585zM759.172-28.69c-38.947 0-70.621 31.673-70.621 70.621s31.673 70.621 70.621 70.621c38.947 0 70.621-31.673 70.621-70.621s-31.673-70.621-70.621-70.621zM759.172 6.621c19.502 0 35.31 15.808 35.31 35.31s-15.808 35.31-35.31 35.31c-19.502 0-35.31-15.808-35.31-35.31s15.808-35.31 35.31-35.31zM310.201 137.516l-10.063 4.802v40.854h-70.621v-40.854l-10.063-4.785c-36.793-17.514-60.557-55.031-60.557-95.603 0-58.421 47.51-105.931 105.931-105.931s105.931 47.51 105.931 105.931c0 40.572-23.764 78.089-60.557 95.585zM264.828-28.69c-38.947 0-70.621 31.673-70.621 70.621s31.673 70.621 70.621 70.621c38.947 0 70.621-31.673 70.621-70.621s-31.673-70.621-70.621-70.621zM353.103 253.793h-176.552c-9.728 0-17.655-7.91-17.655-17.655s7.927-17.655 17.655-17.655h176.552c9.728 0 17.655 7.91 17.655 17.655s-7.927 17.655-17.655 17.655zM229.517 324.414h70.621v-35.31h-70.621v35.31zM264.828 6.621c19.502 0 35.31 15.808 35.31 35.31s-15.808 35.31-35.31 35.31c-19.502 0-35.31-15.808-35.31-35.31s15.808-35.31 35.31-35.31zM229.517 465.655h70.621v-35.31h-70.621v35.31zM264.828 818.759c19.502 0 35.31 15.808 35.31 35.31s-15.808 35.31-35.31 35.31c-19.502 0-35.31-15.809-35.31-35.31s15.808-35.31 35.31-35.31zM353.103 395.034h-176.552c-9.728 0-17.655-7.91-17.655-17.655s7.927-17.655 17.655-17.655h176.552c9.728 0 17.655 7.91 17.655 17.655s-7.927 17.655-17.655 17.655zM335.448 518.621v141.241c0 9.746-7.927 17.655-17.655 17.655h-105.931c-9.728 0-17.655-7.91-17.655-17.655v-141.241c0-9.746 7.927-17.655 17.655-17.655h105.931c9.728 0 17.655 7.91 17.655 17.655zM300.138 536.276h-70.621v35.31h70.621v-35.31zM300.138 606.897h-70.621v35.31h70.621v-35.31zM264.828 960c-58.421 0-105.931-47.51-105.931-105.931 0-40.572 23.764-78.089 60.557-95.585l10.063-4.802v-40.854h70.621v40.854l10.063 4.785c36.793 17.514 60.557 55.031 60.557 95.603 0 58.421-47.51 105.931-105.931 105.931zM264.828 783.448c-38.947 0-70.621 31.673-70.621 70.621s31.673 70.621 70.621 70.621c38.947 0 70.621-31.673 70.621-70.621s-31.673-70.621-70.621-70.621z" />
<glyph unicode="&#xe907;" glyph-name="Transmission" d="M512 813.714c10.099 0 18.286 8.186 18.286 18.286s-8.186 18.286-18.286 18.286c-10.099 0-18.286-8.186-18.286-18.286s8.186-18.286 18.286-18.286zM18.286-64h987.428c4.849 0 9.502 1.927 12.93 5.355s5.355 8.080 5.355 12.93v585.143c0 4.849-1.927 9.502-5.355 12.93s-8.080 5.355-12.93 5.355h-420.571v-101.285c11.449-10.295 20.615-22.87 26.914-36.919 6.297-14.047 9.587-29.259 9.657-44.654v-36.571h109.714v36.571c0 29.098 11.559 57.003 32.135 77.579s48.481 32.135 77.579 32.135 57.003-11.559 77.579-32.135c20.577-20.575 32.135-48.481 32.135-77.579v-256c0-29.098-11.559-57.003-32.135-77.579s-48.481-32.135-77.579-32.135-57.003 11.559-77.579 32.135c-20.577 20.575-32.135 48.481-32.135 77.579v36.571h-109.714v-36.571c0-29.098-11.559-57.003-32.135-77.579s-48.481-32.135-77.579-32.135-57.003 11.559-77.579 32.135c-20.577 20.575-32.135 48.481-32.135 77.579v36.571h-109.714v-36.571c0-29.098-11.559-57.003-32.135-77.579s-48.481-32.135-77.579-32.135-57.003 11.559-77.579 32.135c-20.576 20.575-32.135 48.481-32.135 77.579v256c0 29.098 11.559 57.003 32.135 77.579s48.481 32.135 77.579 32.135 57.003-11.559 77.579-32.135c20.577-20.575 32.135-48.481 32.135-77.579v-36.571h109.714v36.571c0.070 15.394 3.359 30.607 9.657 44.654 6.299 14.049 15.466 26.624 26.914 36.919v101.285h-420.571c-4.85 0-9.501-1.927-12.93-5.355s-5.355-8.080-5.355-12.93v-585.143c0-4.849 1.927-9.502 5.355-12.93s8.080-5.355 12.93-5.355zM950.857 521.143h36.571v-36.571h-36.571v36.571zM950.857 9.143h36.571v-36.571h-36.571v36.571zM36.572 521.143h36.571v-36.571h-36.571v36.571zM36.572 9.143h36.571v-36.571h-36.571v36.571zM475.429 671.671v-296.814c0-9.698 3.853-19.001 10.712-25.859s16.161-10.712 25.859-10.712c9.698 0 19.001 3.853 25.859 10.712s10.712 16.161 10.712 25.859v296.814c-24.053-5.656-49.090-5.656-73.143 0zM512 704c25.317 0 50.063 7.506 71.113 21.571 21.049 14.065 37.455 34.055 47.143 57.445s12.224 49.127 7.285 73.955-17.13 47.637-35.032 65.538c-17.899 17.901-40.707 30.091-65.538 35.031-24.829 4.939-50.566 2.405-73.954-7.283s-43.379-26.094-57.445-47.144c-14.065-21.049-21.571-45.797-21.571-71.113 0.039-33.936 13.537-66.471 37.534-90.466s56.53-37.495 90.466-37.534zM512 886.857c10.849 0 21.456-3.217 30.477-9.245s16.053-14.595 20.203-24.619c4.153-10.023 5.239-21.054 3.123-31.696-2.118-10.64-7.342-20.416-15.015-28.087-7.671-7.673-17.447-12.897-28.087-15.015-10.642-2.115-21.672-1.030-31.696 3.123-10.023 4.151-18.591 11.182-24.618 20.203s-9.246 19.627-9.246 30.477c0 14.549 5.781 28.502 16.067 38.79s24.24 16.067 38.79 16.067z" />
<glyph unicode="&#xe908;" glyph-name="Turbo" d="M336.255 588.434c1.28 2.896 2.746 5.705 4.389 8.411-15.18 24.409-36.129 44.714-60.998 59.126s-52.902 22.491-81.629 23.524c-16.243-28.674-26.8-60.214-31.085-92.891 21.36 12.368 45.239 19.745 69.851 21.577 34.264 1.497 68.382-5.275 99.474-19.748zM385.443 469.030c-2.895 1.28-5.705 2.745-8.411 4.389-24.409-15.183-44.714-36.129-59.124-61.001-14.412-24.871-22.491-52.902-23.527-81.627 28.674-16.244 60.214-26.8 92.891-31.085-12.368 21.358-19.745 45.236-21.577 69.851-1.497 34.261 5.278 68.381 19.748 99.474zM365.329 625.737c2.456 1.914 5.022 3.685 7.68 5.303-1.090 31.616-10.622 62.365-27.611 89.051-14.027 21.616-32.551 39.952-54.308 53.76-26.708-15.622-50.322-36.011-69.668-60.16 23.518-3.147 46.332-10.258 67.474-21.028 30.442-15.906 56.645-38.851 76.434-66.925zM348.142 498.104c-1.829 2.56-3.657 5.12-5.303 7.68-31.621-1.064-62.376-10.6-89.051-27.611-21.617-14.027-39.954-32.551-53.76-54.308 15.659-26.626 35.973-50.224 59.977-69.668 3.184 23.534 10.356 46.352 21.211 67.474 15.854 30.479 38.808 56.694 66.925 76.434zM455.66 637.625c2.895-1.28 5.705-2.746 8.411-4.389 24.409 15.18 44.712 36.127 59.124 60.998s22.491 52.902 23.527 81.629c-28.675 16.243-60.217 26.8-92.891 31.085 12.367-21.36 19.743-45.239 21.577-69.851 1.496-34.264-5.278-68.382-19.748-99.474zM401.532 138.609c-21.211 1.829-42.057-13.166-62.537-8.594l-23.954-48.091 220.524-64.182 43.337 102.765c-97.828 10.057-172.982 17.737-177.37 18.103zM203.328 38.402l10.24 35.108 351.083-102.401-10.24-35.108-351.083 102.401zM420.549 498.469c30.297 0 54.857 24.561 54.857 54.857s-24.56 54.857-54.857 54.857-54.857-24.56-54.857-54.857c0-30.296 24.56-54.857 54.857-54.857zM376.119 739.839c18.548-28.933 29.781-61.942 32.731-96.182 3.109 0.366 6.217 0.731 9.508 0.914 14.76 27.876 21.83 59.181 20.48 90.696-3.102 26.499-12.851 51.785-28.343 73.508-28.047-1.051-55.728-6.736-81.919-16.823 18.654-14.588 34.724-32.204 47.542-52.114zM464.986 366.815c-18.578 28.985-29.812 62.061-32.731 96.365-3.145-0.555-6.32-0.923-9.508-1.097-14.76-27.876-21.83-59.184-20.48-90.696 3.102-26.499 12.851-51.787 28.343-73.508 28.047 1.051 55.728 6.735 81.919 16.823-18.654 14.588-34.724 32.204-47.542 52.114zM330.401 541.443c-0.545 3.207-0.912 6.442-1.097 9.691-27.869 14.78-59.179 21.851-90.696 20.48-26.499-3.102-51.785-12.851-73.508-28.343 1.051-28.048 6.736-55.729 16.823-81.919 17.858 22.899 40.276 41.843 65.834 55.628 25.558 13.787 53.701 22.116 82.645 24.463zM877.689 69.856c14.628-1.646 27.063-2.926 36.571-3.84v253.987h-36.571v-250.147zM950.831 447.999h73.142v-438.854h-73.142v438.854zM767.977 356.573h31.268c29.955 61.961 44.244 130.328 41.609 199.099s-22.113 135.846-56.722 195.332c-34.608 59.489-83.291 109.569-141.774 145.849s-124.978 57.649-193.648 62.23c-9.508 0.549-19.017 0.914-28.525 0.914-106.709 0.334-209.474-40.314-287.083-113.553-59.426-55.656-101.419-127.366-120.882-206.424-19.464-79.060-15.56-162.068 11.235-238.952s75.333-144.337 139.719-194.171c64.387-49.835 141.854-79.91 222.999-86.573 8.777-0.731 300.432-30.903 454.945-46.811v246.49h-73.142v36.571zM420.552 260.757c-57.865 0-114.429 17.159-162.543 49.307s-85.611 77.842-107.757 131.302c-22.144 53.46-27.937 112.286-16.647 169.039 11.288 56.753 39.153 108.884 80.069 149.799 40.917 40.917 93.048 68.781 149.801 80.070s115.577 5.495 169.039-16.649c53.46-22.144 99.151-59.644 131.3-107.757s49.307-104.678 49.307-162.543c-0.101-77.562-30.957-151.92-85.803-206.766-54.845-54.844-129.202-85.701-206.766-85.803zM475.774 481.098c-2.408-2.033-4.976-3.867-7.68-5.486 1.090-31.616 10.622-62.365 27.611-89.051 14.027-21.616 32.551-39.952 54.308-53.76 26.558 15.604 50.096 35.86 69.485 59.794-28.769 4.032-56.389 13.976-81.126 29.208-24.735 15.232-46.049 35.421-62.598 59.294zM594.447 498.284c-30.961 0.046-61.538 6.848-89.599 19.931-1.28-2.895-2.746-5.705-4.389-8.411 15.18-24.408 36.129-44.712 60.998-59.124s52.902-22.491 81.629-23.524c16.244 28.674 26.8 60.214 31.085 92.888-21.358-12.367-45.239-19.743-69.851-21.577-3.291-0.183-6.583-0.183-9.874-0.183zM510.701 565.029c0.555-3.143 0.921-6.32 1.097-9.508 27.837-14.864 59.172-21.94 90.696-20.48 26.499 3.102 51.785 12.851 73.508 28.343-1.033 28.050-6.718 55.732-16.823 81.919-17.88-22.891-40.298-41.841-65.85-55.656-25.552-13.812-53.683-22.195-82.629-24.618zM581.1 752.456c-3.184-23.534-10.356-46.35-21.211-67.474-15.906-30.442-38.851-56.645-66.925-76.434 1.829-2.377 3.657-5.12 5.303-7.68 31.625 1.040 62.385 10.578 89.051 27.611 21.616 14.027 39.952 32.552 53.76 54.308-15.659 26.627-35.975 50.225-59.977 69.668z" />
<glyph unicode="&#xe909;" glyph-name="Spoiler" d="M626.222 328.258v55.742h-64.445v-37.162h-180.445l-12.888 37.162h-64.445l103.11-288h360.89l-141.778 232.258zM394.222 309.677h180.445l103.11-176.515h-219.11l-64.445 176.515zM136.692 794.053l-57.1 5.524c-38.899 3.77-74.304-18.091-79.058-48.822-1.294-8.253-0.23-16.648 3.122-24.55l107.972-255.88c9.65-22.882 36.771-38.325 67.299-38.325h774.121c39.182 0 70.952 25.098 70.952 56.053 0 11.070-4.15 21.89-11.92 31.096l-28.659 33.952-669.916 64.141-176.812 176.811zM924.379 623.046l-581.882 55.712-105.6 105.6 551.842-53.39c30.794-2.984 58.411-16.422 75.616-36.811l60.024-71.11z" />
<glyph unicode="&#xe90a;" glyph-name="Color2" d="M1023.998 508.018c0 51.517-33.784 135.125-103.285 255.598-49.648 86.070-125.235 196.384-125.235 196.384s-92.568-135.328-158.798-259.126c17.766-27.89 39.342-62.787 61.042-100.406 75.758-131.322 111.042-221.749 111.042-284.579 0-12.232-0.773-24.286-2.269-36.12 120.912 5.768 217.504 105.938 217.504 228.25zM750.77 315.888c0 51.515-33.784 135.123-103.283 255.597-49.651 86.070-125.237 196.382-125.237 196.382s-90.68-132.562-156.659-255.051c13.312-21.339 26.536-43.131 38.411-63.717 75.758-131.328 111.042-221.754 111.042-284.579 0-26.467-3.624-52.101-10.371-76.446 5.84-0.453 11.702-0.707 17.576-0.707 126.006 0 228.522 102.514 228.522 228.522zM457.042 164.52c0 51.517-33.784 135.123-103.283 255.598-49.65 86.069-125.238 196.381-125.238 196.381s-75.588-110.312-125.238-196.381c-69.496-120.475-103.282-204.082-103.282-255.598 0-126.006 102.514-228.52 228.522-228.52 126.006 0 228.52 102.514 228.52 228.52z" />
<glyph unicode="&#xe90b;" glyph-name="FrontWheels" d="M511.998 789.334c-188.208 0-341.334-153.126-341.334-341.334s153.126-341.334 341.334-341.334c188.208 0 341.334 153.126 341.334 341.334s-153.126 341.334-341.334 341.334zM686.624 661.834c3.834 4.27 9.25 6.792 15 7.021 4.958 0.562 11.334-1.854 15.501-5.813 44.25-41.896 74.333-95.229 86.915-154.229 2-9.418-2.542-19.002-11.083-23.418-20.877-10.79-45.667-16.019-69.416-16.019-30.958 0-60.293 8.877-77.293 25.877-36.166 36.144-21.083 98.413 40.376 166.581zM337.374 230.834c-3.834-4.27-9.25-6.811-15-7.042-0.25-0.021-0.542-0.021-0.834-0.021-5.459 0-10.709 2.085-14.667 5.835-44.25 41.896-74.333 95.23-86.915 154.25-2 9.416 2.542 19 11.083 23.416 48.085 24.811 116.667 20.189 146.709-9.854 36.123-36.147 21.040-98.418-40.376-166.584zM377.749 495.25c-17-17-46.334-25.875-77.293-25.875-23.75 0-48.499 5.229-69.416 16.019-8.542 4.416-13.083 14-11.083 23.416 12.584 59 42.666 112.334 86.915 154.23 4.166 3.958 10.293 6.416 15.501 5.811 5.749-0.229 11.165-2.749 15-7.019 61.459-68.166 76.541-130.437 40.376-166.582zM602.914 163.52c-29.541-9.416-60.125-14.189-90.915-14.189s-61.376 4.771-90.917 14.189c-9.376 3-15.499 12-14.834 21.811 5.334 76.773 50.792 134.669 105.75 134.669s100.416-57.896 105.75-134.666c0.666-9.814-5.459-18.814-14.835-21.814zM426.664 448c0 47.062 38.293 85.334 85.334 85.334s85.334-38.27 85.334-85.334c0-47.064-38.293-85.334-85.334-85.334s-85.334 38.272-85.334 85.334zM617.749 708.979c-5.334-76.749-50.792-134.645-105.75-134.645s-100.416 57.896-105.75 134.645c-0.666 9.813 5.416 18.813 14.792 21.792 59.085 18.877 122.834 18.877 181.917 0 9.376-2.979 15.458-11.979 14.792-21.792zM804.040 387.25c-12.584-59.019-42.666-112.354-86.915-154.25-3.958-3.75-9.208-5.834-14.667-5.834-0.291 0-0.584 0-0.834 0.019-5.75 0.23-11.166 2.75-15 7.021-61.458 68.166-76.542 130.458-40.376 166.603 30.042 30.062 98.584 34.627 146.709 9.854 8.541-4.414 13.083-13.998 11.083-23.414zM512 960c-282.334 0-512-229.688-512-512s229.666-512 512-512c282.334 0 512 229.688 512 512s-229.666 512-512 512zM512 64c-211.75 0-384 172.27-384 384s172.25 384 384 384c211.75 0 384-172.27 384-384s-172.25-384-384-384z" />
<glyph unicode="&#xe90c;" glyph-name="Wings" d="M229.257 218.407l26.491-35.322h44.154l-26.493 35.322h-44.152zM635.458 448.001c-149.851 0-272.494-117.333-281.67-264.915h35.038c9.088 128.138 116.245 229.592 246.632 229.592s237.542-101.454 246.632-229.592h35.046c-9.184 147.582-131.827 264.915-281.678 264.915zM52.647 218.407l26.491-35.322h44.152l-26.492 35.322h-44.152zM140.952 218.407l26.492-35.322h44.152l-26.491 35.322h-44.152zM812.061 642.271h141.288v-35.323h-141.288v35.323zM1006.337 712.914h-419.698c-23.093 0-46.23-5.467-66.909-15.806-25.578-12.781-54.173-19.515-82.726-19.515h-31.139c-22.731 0-42.178 14.384-49.68 34.528l-120.091-68.608c-140.71-80.432-229.998-228.584-236.094-389.784h291.069l30.467-40.616c23.138 152.678 154.888 270.208 313.922 270.208 169.315 0 307.765-133.181 317.002-300.235h53.878c9.754 0 17.662 7.915 17.662 17.661v494.507c0 9.736-7.909 17.661-17.662 17.661zM271.148 582.174c-97.773-55.898-167.658-151.232-191.726-261.578l-34.494 7.528c26.172 120.091 102.258 223.867 208.697 284.706l72.835 41.618 17.523-30.666-72.835-41.608zM988.676 571.626h-211.931v105.966h211.931v-105.966z" />
<glyph unicode="&#xe90d;" glyph-name="Brakes" d="M1023.807 461.737c-31.475 272.212-215.245 456.652-495.921 497.525-17.965 2.614-33.826-11.924-33.826-30.080v-202.084c76.702-6.885 147.581-40.167 202.835-95.422s88.539-126.536 95.422-203.235h201.283c17.79 0 32.25 15.622 30.206 33.296zM595.145 423.768c-12.733 52.414-55.724 95.401-108.136 108.136-111.45 27.074-209.875-71.347-182.801-182.801 12.734-52.412 55.723-95.403 108.136-108.135 111.452-27.072 209.875 71.35 182.801 182.8zM449.679 296.436c-49.63 0-90.001 40.374-90.001 90.001 0 49.63 40.372 90.001 90.001 90.001s90.001-40.372 90.001-90.001c0-49.628-40.374-90.001-90.001-90.001zM449.677 416.438c-16.552 0-30-13.448-30-30s13.448-30 30-30c16.552 0 30 13.448 30 30s-13.448 30-30 30zM749.358 356.437c-16.837 0.002-29.294 14.094-29.355 30.928-0.237 71.639-28.341 139.042-79.187 189.886-50.844 50.846-118.248 78.95-189.886 79.191-16.835 0.054-30.926 12.514-30.926 29.349v149.134c-239.171-15.882-427.96-218.914-419.746-463.87 7.79-232.323 202.041-426.576 434.365-434.366 244.955-8.213 447.985 180.576 463.869 419.747h-149.133zM216.655 619.787c11.715 11.717 30.709 11.717 42.427 0 11.718-11.715 11.718-30.709 0-42.427-11.717-11.715-30.71-11.715-42.427 0-11.717 11.717-11.715 30.71 0 42.427zM149.999 356.439c-16.568 0-30 13.432-30 30 0 16.573 13.432 30 30 30s30-13.427 30-30c0-16.568-13.432-30-30-30zM259.080 153.090c-11.717-11.717-30.71-11.717-42.427 0s-11.717 30.714 0 42.431c11.715 11.715 30.709 11.715 42.427 0 11.718-11.717 11.718-30.712 0-42.431zM450.003 56.434c-16.568 0-30 13.432-30 30 0 16.573 13.432 30 30 30s30-13.427 30-30c0-16.568-13.432-30-30-30zM491.158 180.376c-147.684-28.224-275.442 99.532-247.222 247.217 15.683 82.079 82.835 149.226 164.909 164.911 147.685 28.219 275.442-99.537 247.223-247.218-15.685-82.079-82.833-149.224-164.911-164.909zM683.352 153.090c-11.715-11.717-30.71-11.717-42.427 0s-11.718 30.714 0 42.431c11.715 11.715 30.71 11.715 42.427 0 11.717-11.717 11.717-30.712 0-42.431z" />
<glyph unicode="&#xe90e;" glyph-name="FrontBumper" d="M939.931 358.191c6.624 5.952 14.533 15.866 14.539 29.265-0.006 26.9-32.225 48.773-71.832 48.773-22.605-0.010-43.49-7.125-57.291-19.528-6.626-5.952-14.523-15.876-14.534-29.269 0.006-26.9 32.225-48.773 71.826-48.768 22.607 0.010 43.49 7.125 57.293 19.528zM376.999 615.374h-89.403l-11.889-32.010h113.171l-11.879 32.010zM736.411 615.375h-89.403l-11.891-32.010h113.171l-11.878 32.010zM0 404.179c0-33.024 14.308-64.043 40.276-87.376s60.49-36.187 97.234-36.177h748.979c36.743-0.010 71.255 12.836 97.234 36.177 25.966 23.333 40.276 54.351 40.276 87.376v90.097h-1023.998v-90.097zM882.638 464.77c57.111 0.010 103.59-34.686 103.584-77.314 0-18.085-8.463-35.642-23.828-49.448-19.71-17.71-48.793-27.875-79.745-27.875-57.113-0.010-103.59 34.686-103.584 77.314-0.011 18.073 8.451 35.631 23.816 49.438 19.71 17.709 48.793 27.874 79.756 27.886zM293.949 405.894v46.28h436.098v-46.28c0-22.223-9.625-43.103-27.114-58.816-17.489-15.715-40.736-24.372-65.458-24.363h-250.955c-24.722-0.010-47.969 8.648-65.458 24.363-17.49 15.713-27.125 36.603-27.114 58.816zM244.932 387.446c0.011-18.075-8.451-35.632-23.818-49.438-19.71-17.71-48.793-27.875-79.744-27.875-57.123 0-103.59 34.686-103.584 77.314-0.011 18.073 8.451 35.631 23.818 49.438 19.71 17.709 48.782 27.864 79.745 27.874 57.122 0 103.601-34.674 103.584-77.312zM69.556 387.446c0.011-26.895 32.219-48.777 71.82-48.773 22.596 0 43.478 7.115 57.282 19.519 6.624 5.952 14.533 15.868 14.521 29.25 0 26.906-32.219 48.779-71.825 48.779-22.595 0-43.478-7.115-57.281-19.519-6.625-5.952-14.522-15.878-14.517-29.257zM869.994 595.19l-22.463-40.367h-671.061l-22.463 40.367h-154.006v-72.377h1023.998v72.377h-154.005z" />
<glyph unicode="&#xe90f;" glyph-name="RearBumper" d="M939.931 358.191c6.624 5.952 14.533 15.866 14.539 29.265-0.006 26.9-32.225 48.773-71.832 48.773-22.605-0.010-43.49-7.125-57.291-19.528-6.626-5.952-14.523-15.876-14.534-29.269 0.006-26.9 32.225-48.773 71.826-48.768 22.607 0.010 43.49 7.125 57.293 19.528zM376.999 615.373h-89.403l-11.889-32.010h113.171l-11.879 32.010zM736.411 615.374h-89.403l-11.891-32.010h113.171l-11.878 32.010zM0 404.178c0-33.024 14.308-64.043 40.276-87.376s60.49-36.187 97.234-36.177h748.979c36.743-0.010 71.255 12.836 97.234 36.177 25.966 23.333 40.276 54.351 40.276 87.376v90.097h-1023.998v-90.097zM882.638 464.769c57.111 0.010 103.59-34.686 103.584-77.314 0-18.085-8.463-35.642-23.828-49.448-19.71-17.71-48.793-27.875-79.745-27.875-57.113-0.010-103.59 34.686-103.584 77.314-0.011 18.073 8.451 35.631 23.816 49.438 19.71 17.709 48.793 27.874 79.756 27.886zM293.949 405.894v46.28h436.098v-46.28c0-22.223-9.625-43.103-27.114-58.816-17.489-15.715-40.736-24.372-65.458-24.363h-250.955c-24.722-0.010-47.969 8.648-65.458 24.363-17.49 15.713-27.125 36.603-27.114 58.816zM244.932 387.445c0.011-18.075-8.451-35.632-23.818-49.438-19.71-17.71-48.793-27.875-79.744-27.875-57.123 0-103.59 34.686-103.584 77.314-0.011 18.073 8.451 35.631 23.818 49.438 19.71 17.709 48.782 27.864 79.745 27.874 57.122 0 103.601-34.674 103.584-77.312zM69.556 387.445c0.011-26.895 32.219-48.777 71.82-48.773 22.596 0 43.478 7.115 57.282 19.519 6.624 5.952 14.533 15.868 14.521 29.25 0 26.906-32.219 48.779-71.825 48.779-22.595 0-43.478-7.115-57.281-19.519-6.625-5.952-14.522-15.878-14.517-29.257zM869.994 595.189l-22.463-40.367h-671.061l-22.463 40.367h-154.006v-72.377h1023.998v72.377h-154.005z" />
<glyph unicode="&#xe910;" glyph-name="Engine" d="M770.25 169.536c-18.491 0.008-35.155-11.125-42.242-28.203-7.078-17.077-3.171-36.741 9.891-49.819 18.109-17.227 46.554-17.227 64.664 0 13.062 13.070 16.968 32.726 9.898 49.805-7.078 17.070-23.734 28.21-42.211 28.218zM271.523 428.592c3.43-3.43 8.086-5.36 12.938-5.36s9.507 1.93 12.938 5.36l6.656 6.67c4.086 4.243 5.922 10.165 4.954 15.97 0 0.507 0 1.024-0.109 1.531v0.149c-0.422 3.312-0.782 6.382-0.915 9.453v1.938c0 0.827 0 1.632 0 2.453-0.101 2.766-0.016 5.547 0.274 8.298v0.203c0.165 2.562 0.422 5.101 0.734 7.648 0.165 1.555 0.438 3.398 0.821 5.485 0.718 4.022 1.64 8.006 2.781 11.938 0.312 1.117 0.515 2.288 0.843 3.382l0.259 0.656c0 0.187 0.109 0.406 0.163 0.586 0.054 0.187 0.165 0.571 0.29 0.843 1.96 5.666 4.366 11.165 7.187 16.454 0.602 1.141 0.984 2.163 1.702 3.296l2.157 3.821c0.382 0.626 0.821 1.203 1.203 1.829 1.976 3 3.656 5.483 5.211 7.475l0.422 0.517c0.874 1.147 1.827 2.304 2.71 3.437 2.461 3.102 5.093 6.062 7.898 8.867 2.79 2.797 5.742 5.43 8.845 7.883 1.155 0.954 2.304 1.827 3.499 2.742l0.469 0.421c2.509 1.829 5.29 3.821 7.922 5.485l0.618 0.344c0.501 0.312 1.008 0.57 1.501 0.883l4.187 2.39c1.883 1.149 3.835 2.171 5.851 3.054l1.829 0.859 0.336 0.149c0.741 0.328 1.64 0.626 2.429 0.954 2.781 1.187 5.485 2.39 8.374 3.358 0.219 0 0.438 0.133 0.672 0.219l0.392 0.149c0.874 0.274 1.586 0.366 2.445 0.624 8.366 2.539 16.992 4.133 25.71 4.75h4.368c2.491 0 4.96 0.258 7.445 0.187h0.805c4.586-0.163 7.954-0.57 11.282-0.992 0.382 0 0.749 0 1.133-0.086 5.805-0.952 11.71 0.891 15.946 4.97l6.694 6.656c7.141 7.141 7.141 18.718 0 25.859l-168.101 168.102-193.844-193.758 168.078-168.101zM316.781 667.825c24.992-24.992 24.992-65.515 0-90.507s-65.515-24.992-90.507 0c-25 24.992-25 65.515-0.008 90.507 25.032 24.93 65.515 24.922 90.531-0.024l-0.016 0.024zM253.749 169.536c-18.477-0.008-35.133-11.147-42.211-28.218-7.070-17.078-3.165-36.734 9.899-49.805 18.109-17.227 46.554-17.227 64.664 0 13.062 13.078 16.968 32.742 9.89 49.819-7.086 17.078-23.75 28.211-42.242 28.203zM450.266 374.614c-0.203-0.163-0.437-0.219-0.64-0.382-75.883-60.843-164.461-122.336-220.742-134.312-11.382-2.344-22.328-6.438-32.461-12.141-0.469-0.274-0.986-0.368-1.461-0.587-0.477-0.226-0.962-0.429-1.461-0.602-1.938-0.726-3.986-1.125-6.056-1.171-2.070 0.038-4.117 0.438-6.054 1.171-0.507 0.181-1.008 0.384-1.491 0.618-1.986 0.851-3.805 2.054-5.36 3.547l-16.789 16.805-25.93-25.835 16.164-16.165c0.328-0.328 0.438-0.766 0.75-1.117 0.797-0.97 1.492-2.024 2.070-3.141 0.586-0.954 1.070-1.962 1.445-3.016 1.172-3.29 1.242-6.867 0.219-10.203-0.289-1.195-0.695-2.358-1.211-3.477-0.219-0.421-0.219-0.882-0.453-1.296-22.555-39.11-21.078-87.602 3.82-125.258 3.016-4.446 6.343-8.672 9.961-12.642 0.173-0.195 0.406-0.274 0.571-0.469 2.835-3.618 6.093-6.875 9.71-9.71 0.219-0.187 0.312-0.438 0.507-0.61 3.946-3.57 8.126-6.867 12.509-9.867 37.68-24.93 86.203-26.437 125.35-3.883 0.4 0.243 0.861 0.243 1.282 0.446 1.165 0.554 2.39 0.968 3.656 1.242 1.062 0.312 2.149 0.523 3.259 0.64 1.171 0.040 2.342-0.030 3.507-0.218 1.133-0.118 2.25-0.328 3.344-0.642 2.211-0.875 4.288-2.062 6.163-3.515 0.352-0.312 0.789-0.422 1.133-0.75l16.056-16.163 25.874 25.859-16.819 16.805c-0.298 0.288-0.384 0.694-0.656 0.984-1.43 1.891-2.618 3.946-3.555 6.125-0.328 1.102-0.555 2.235-0.672 3.382-0.477 2.243-0.344 4.571 0.366 6.75 0.259 1.258 0.65 2.485 1.165 3.656 0.187 0.368 0.171 0.75 0.366 1.117 5.696 10.086 9.782 21.002 12.11 32.344 16.64 78.118 128.328 218.189 201.562 300.414 0.094 0.133 0.11 0.282 0.203 0.39 0.086 0.11 0.398 0.29 0.563 0.493 18.29 20.477 34.195 37.485 45.477 48.75l53.96 53.96c-0.109 0.219-0.218 0.398-0.312 0.602-1.157 2.422-2.437 4.774-3.835 7.062-1.243 2.024-2.688 3.946-4.133 5.867-0.406 0.493-0.845 0.984-1.118 1.39l0.438-0.421-0.29 0.421c-0.547 0.579-1.046 1.189-1.515 1.829l-0.149 0.179c-1.626 1.938-3.274 3.875-5.086 5.704-1.811 1.835-3.656 3.437-5.686 5.070l-0.258 0.203c-0.618 0.469-1.203 1-1.829 1.491-4.648 3.65-9.68 6.774-15.008 9.328l-53.962-53.976c-12.030-12.054-30.686-29.461-53.030-49.374-21.946-19.438-47.539-41.251-75.117-63.336-0.274-0.040-0.314-0.282-0.422-0.368zM311.954 65.584c-32.133-32.133-84.235-32.133-116.368 0s-32.133 84.234 0 116.366c32.133 32.141 84.235 32.141 116.368 0 15.547-15.352 24.296-36.296 24.296-58.149 0-21.843-8.749-42.789-24.296-58.147v-0.070zM290.923 603.169c7.851 7.843 10.195 19.64 5.952 29.89s-14.25 16.931-25.342 16.931c-11.094 0-21.094-6.68-25.336-16.931-4.251-10.25-1.899-22.046 5.944-29.89 10.712-10.712 28.078-10.712 38.782 0zM122.844 771.248l96.969 96.968-25.875 25.875-193.938-193.954 25.859-25.859 96.984 96.97zM51.711 648.403l25.875-25.851 193.937 193.953-25.851 25.859-193.961-193.961zM391.312 541.669c-0.234-0.109-0.398-0.218-0.616-0.312-4.579-2.25-8.93-4.93-13-8.008-0.477-0.382-0.923-0.781-1.43-1.133-0.632-0.618-1.336-1.163-2.086-1.626-1.827-1.608-3.819-3.218-5.61-5.014-1.797-1.789-3.461-3.766-5.085-5.704l-0.187-0.234c-0.384-0.493-0.821-1.062-1.243-1.539s-0.531-0.642-0.821-1.024c-3.405-4.429-6.35-9.203-8.773-14.242l54.032-53.875c10.109-10.109 21.781-22.414 33.702-35.523 15.39 12.507 30.258 24.992 44.32 37.133-15.469 13.976-28.875 26.624-39.312 37.070l-53.891 54.030zM771.861 603.145c7.843 7.845 10.195 19.642 5.946 29.891-4.243 10.25-14.243 16.938-25.336 16.938-11.094 0-21.102-6.688-25.344-16.938s-1.899-22.046 5.952-29.891c10.704-10.702 28.070-10.702 38.782 0zM565.174 590.037c4.242-4.078 10.155-5.922 15.968-4.978 0.477 0 0.93 0 1.39 0.094h0.274c3.125 0.422 6.274 0.766 9.414 0.914h7.024c1.827 0 3.656 0 5.741-0.274 3.086-0.179 6.165-0.491 9.141-0.914 0.845-0.109 1.68-0.219 2.618-0.382 5.477-0.875 10.883-2.125 16.179-3.75l0.571-0.149c0.694-0.234 1.226-0.491 1.827-0.726 3.509-1.218 6.962-2.578 10.352-4.062 0.306-0.149 0.672-0.258 0.984-0.382 0.602-0.258 1.336-0.734 1.978-1.024 2.266-1.101 4.515-2.234 6.71-3.477l3.656-2.030c0.859-0.547 1.461-0.97 2.211-1.461 1.187-0.766 2.374-1.555 3.531-2.376 1.149-0.827 2.578-1.827 3.656-2.656 0.314-0.234 0.618-0.507 0.93-0.765l0.203-0.165c4.102-3.125 8-6.499 11.688-10.109 2.797-2.805 5.437-5.766 7.898-8.875 0.946-1.149 1.829-2.298 2.742-3.493l0.384-0.453c1.827-2.507 3.843-5.282 5.594-7.938l0.296-0.507c0.382-0.626 0.712-1.266 1.078-1.829l2.25-3.882c1.125-1.861 2.133-3.79 3.016-5.774 0.328-0.694 0.618-1.414 0.954-2.101v-0.173c0.163-0.382 0.304-0.859 0.491-1.258 1.501-3.398 2.923-6.835 4.094-10.366l0.109-0.274c0.203-0.68 0.274-1.187 0.461-1.829 2.704-8.773 4.368-17.827 4.954-26.992v-2.086c0.149-3.070 0.312-6.141 0.219-9.141v-0.678c-0.165-4.571-0.571-7.915-0.984-11.227 0-0.398 0-0.805-0.094-1.187-0.968-5.805 0.875-11.726 4.954-15.962l6.656-6.68c3.429-3.429 8.086-5.358 12.938-5.358s9.507 1.93 12.938 5.358l168.085 168.102-193.632 193.883-168.102-168.094c-7.133-7.141-7.133-18.718 0-25.859l6.658-6.656zM707.205 667.801c24.992 24.986 65.509 24.986 90.501-0.014 24.984-24.994 24.984-65.509 0-90.501-24.992-24.992-65.509-25-90.501-0.016-24.968 25.024-24.96 65.539 0.016 90.555l-0.016-0.024zM946.414 622.552l25.875 25.851-193.962 193.961-25.851-25.859 193.938-193.953zM804.187 868.216l193.954-193.938 25.859 25.859-193.938 193.954-25.875-25.875zM871.734 198.262c0.39 1.070 0.883 2.094 1.461 3.070 0.578 1.102 1.266 2.133 2.046 3.094 0.314 0.344 0.422 0.789 0.75 1.133l16.165 16.165-25.853 25.859-16.678-16.68c-1.634-1.626-3.563-2.922-5.688-3.821-0.36-0.163-0.71-0.312-1.078-0.437-4.016-1.712-8.555-1.712-12.578 0-0.368 0.125-0.712 0.274-1.078 0.437-0.57 0.187-1.125 0.414-1.664 0.68-9.992 5.718-20.837 9.781-32.125 12.030-55.32 11.79-140.712 71.406-207.314 123.446-17.093-19.531-35.030-40.867-52.859-63.125 49.79-64.165 107.461-147.274 118.986-201.141 2.312-11.382 6.39-22.336 12.085-32.461 0.219-0.384 0.219-0.821 0.406-1.219 0.453-1.024 0.797-2.094 1.040-3.187 0.765-2.133 0.944-4.43 0.515-6.656-0.117-1.328-0.374-2.642-0.773-3.915-0.36-0.89-0.79-1.757-1.282-2.594-0.618-1.25-1.39-2.414-2.306-3.477-0.25-0.274-0.344-0.632-0.602-0.914l-16.805-16.805 25.859-25.835 16.149 16.163c0.328 0.328 0.782 0.438 1.133 0.75 1.867 1.453 3.938 2.626 6.141 3.493 1.117 0.342 2.258 0.57 3.422 0.678 1.133 0.173 2.29 0.243 3.437 0.203 1.118-0.109 2.227-0.32 3.306-0.64 1.226-0.282 2.406-0.696 3.531-1.242 0.421-0.203 0.882-0.203 1.282-0.446 39.117-22.523 87.6-21.046 125.272 3.829 4.422 3.030 8.634 6.358 12.602 9.96 0.203 0.165 0.274 0.384 0.477 0.531 1.672 1.344 3.274 2.774 4.805 4.282l0.368 0.328 0.274 0.314c1.523 1.515 2.952 3.125 4.28 4.827 0.165 0.195 0.398 0.29 0.571 0.469 3.578 3.946 6.883 8.133 9.89 12.531 24.93 37.68 26.438 86.211 3.891 125.368-0.234 0.398-0.234 0.859-0.437 1.274-0.547 1.133-0.962 2.328-1.243 3.554-0.312 1.062-0.523 2.165-0.64 3.274-0.046 1.165 0.030 2.336 0.219 3.493 0.109 1.133 0.328 2.258 0.64 3.358zM828.437 65.654c-27.749-27.766-71.258-32.062-103.898-10.266-32.648 21.803-45.352 63.632-30.336 99.906 15.008 36.274 53.555 56.883 92.062 49.234 38.501-7.648 66.242-41.429 66.25-80.686 0.054-21.845-8.656-42.805-24.171-58.187h0.093z" />
<glyph unicode="&#xe911;" glyph-name="Headlights" d="M327.891 775.949c-181.714 0-328.578-147.456-327.889-329.24 0.687-180.126 149.532-326.661 331.822-326.661h153.653c82.456 209.573 82.456 446.328 0 655.901h-157.586zM552.282 775.949c38.459-105.224 57.918-215.317 57.918-327.95s-19.459-222.726-57.918-327.95h75.627c13.066 0 24.811 8.112 29.293 20.386 72.149 197.643 72.149 417.486 0 615.131-4.482 12.272-16.227 20.384-29.293 20.384h-75.627zM768.256 706.363h181.354c17.24 0 31.218 13.976 31.218 31.218 0 17.24-13.978 31.218-31.218 31.218h-181.354c-17.24 0-31.218-13.978-31.218-31.218 0-17.242 13.978-31.218 31.218-31.218zM780.211 544.526c0-17.242 13.978-31.218 31.218-31.218h181.354c17.24 0 31.218 13.976 31.218 31.218 0 17.24-13.978 31.216-31.218 31.216h-181.354c-17.24 0-31.218-13.976-31.218-31.216zM992.782 382.69h-181.354c-17.24 0-31.218-13.978-31.218-31.218s13.978-31.218 31.218-31.218h181.354c17.24 0 31.218 13.978 31.218 31.218s-13.976 31.218-31.218 31.218zM949.61 189.635h-181.354c-17.24 0-31.218-13.976-31.218-31.218 0-17.24 13.978-31.218 31.218-31.218h181.354c17.24 0 31.218 13.978 31.218 31.218 0 17.242-13.978 31.218-31.218 31.218z" />
<glyph unicode="&#xe912;" glyph-name="Frame" d="M947.843 506.031l-403.394-366.64c-14.256-13.017-32.865-20.235-52.17-20.235h-492.279v38.688l38.688 19.343v19.344l-38.688 19.343v19.344l323.601 372.482-43.116 169.141h677.030l66.485-245.433-76.156-25.379zM686.703 622.094l191.018 77.376h-498.584l126.044-472.413 181.522 395.038zM347.801 516.942l-241.12-281.721 9.382-38.688h317.238l-85.499 320.409zM831.779 622.094l-96.72-38.688-96.718-154.749 96.718 19.343 96.72 116.062v58.030zM986.528 564.063c0 10.682-8.66 19.343-19.343 19.343s-19.344-8.66-19.344-19.343c0-10.684 8.66-19.344 19.344-19.344 10.682 0 19.343 8.66 19.343 19.344zM928.496 699.469c10.682 0 19.343 8.66 19.343 19.344 0 10.682-8.66 19.343-19.343 19.343s-19.344-8.66-19.344-19.343c0-10.684 8.66-19.344 19.344-19.344zM580.309 196.533c0 10.682-8.659 19.343-19.343 19.343s-19.344-8.66-19.344-19.343c0-10.684 8.66-19.344 19.344-19.344s19.343 8.66 19.343 19.344zM348.185 718.814c10.682 0 19.343 8.659 19.343 19.343s-8.66 19.344-19.343 19.344c-10.684 0-19.344-8.66-19.344-19.344s8.66-19.343 19.344-19.343z" />
<glyph unicode="&#xe913;" glyph-name="WindowTint" d="M399.719 627.649c5.745 0 11.491 2.194 15.878 6.579l44.912 44.912c8.772 8.772 8.772 22.983 0 31.755-8.774 8.772-22.984 8.772-31.755 0l-44.912-44.912c-8.772-8.774-8.772-22.984 0-31.755 4.383-4.387 10.132-6.579 15.878-6.579zM518.577 711.552l-134.735-121.263c-8.772-7.896-8.772-20.684 0-28.579 4.386-3.947 10.134-5.922 15.879-5.922s11.491 1.974 15.878 5.922l134.735 121.263c8.772 7.896 8.772 20.684 0 28.579-8.772 7.896-22.984 7.896-31.756 0zM1009.957 796.448c-22.669 39.929-68.282 64.746-119.021 64.746h-413.4c-79.157 0-154.712-29.86-207.304-81.949l-200.323-198.38c-45.194-44.735-70.074-102.344-69.908-164.633l35.694-242.398c5.104-34.737 23.42-67.532 51.569-92.293 34.234-30.134 79.743-46.733 128.165-46.733h723.223c47.071 0.002 85.348 33.695 85.348 75.127v634.131c0 18.085-4.854 36.205-14.043 52.382zM165.708 506.014l200.293 198.36c28.334 28.045 69.019 44.131 111.625 44.131h413.335c1.98 0 3.626-0.88 5.041-4.44v-296.065h-766.294c3.919 19.884 14.854 37.031 35.999 58.014zM917.333 185.062h-767.998c-11.792 0-21.336 8.401-21.336 18.782s9.543 18.779 21.336 18.779h767.998c11.792 0 21.336-8.401 21.336-18.78 0-10.381-9.543-18.78-21.336-18.78zM917.333 297.75h-128c-11.791 0-21.333 8.401-21.333 18.782s9.543 18.78 21.333 18.78h128c11.792 0 21.336-8.401 21.336-18.78-0.002-10.384-9.543-18.782-21.336-18.782z" />
<glyph unicode="&#xe914;" glyph-name="Muffler" d="M651.185 761.164v19.883h-278.368v-19.883h278.368zM651.185 65.242v19.883h-278.37v-19.883h278.37zM561.71 781.047h-99.418v109.36l99.418 69.592v-178.952zM541.827 790.99v129.242h-9.942v-129.242h9.942zM631.302 761.164h-238.602v-676.039h238.602v676.039zM611.419 741.281v-636.273h-49.709v636.273h49.709zM541.827 105.009h-9.942v636.273h9.942v-636.273zM541.827 85.126v-149.126h-59.651v149.126h59.651z" />
<glyph unicode="&#xe915;" glyph-name="Lattice" d="M70.62 818.758v-70.621h-70.621v-70.621h70.621v-459.033h-70.621v-70.621h70.621v-70.621h70.655l-0.069 741.515h-70.586zM176.554 147.863h600.273v-35.31h-600.273v35.31zM176.554 253.795h335.447v-35.31h-335.447v-35.31h600.273v35.31h-229.516v35.31h229.516v35.31h-600.273v-35.31zM921.319 218.484h-38.578v35.31h35.328v70.621h-35.328l-0.035 353.101h70.674v70.621h-70.69v70.621h-70.552v-741.515h70.621v70.621h88.275v35.31c-22.982 0-42.405 14.794-49.715 35.31zM176.554 395.035h282.481v-35.31h-282.481v-35.31h600.273v35.31h-282.482v35.31h282.482v35.309h-600.273v-35.309zM1006.346 536.275h-35.31c-9.742 0-17.656-7.914-17.656-17.654v-282.482c0-9.741 7.914-17.656 17.656-17.656h35.31c9.741 0 17.654 7.915 17.654 17.656v282.482c0 9.723-7.914 17.654-17.654 17.654zM176.554 500.966h600.273v-35.31h-600.273v35.31zM176.554 606.896h70.621v-35.31h-70.621v-35.31h600.273v35.31h-494.343v35.31h494.343v35.31h-600.273v-35.31zM176.554 748.137h494.343v-35.31h-494.343v-35.31h600.273v35.31h-70.621v35.31h70.621v35.31h-600.273v-35.31z" />
<glyph unicode="&#xe916;" glyph-name="ColorAdditional" d="M173.71 64.516c-5.046 0-9.141-4.093-9.141-9.147v-18.282c0-5.054 4.094-9.141 9.141-9.141h257.829c-5.062 11.664-5.062 24.906 0 36.57h-257.829zM483.966 22.586l21.555-21.562c1.718-1.72 4.046-2.688 6.477-2.688 2.429 0 4.757 0.968 6.477 2.688l38.741 38.734c3.571 3.57 3.571 9.35 0 12.922l-38.741 38.789c-1.72 1.718-4.048 2.68-6.477 2.68s-4.758-0.962-6.477-2.68l-38.742-38.75c-3.57-3.57-3.57-9.358 0-12.93l17.187-17.171v-0.032zM999.61 177.649c-0.352 0.274-0.696 0.509-1.024 0.821l-32.914 26.298c-3.344 2.67-8.094 2.67-11.43 0l-54.859-43.891c-1.477-1.29-2.507-3.016-2.922-4.93h127.008c-0.414 1.922-1.453 3.656-2.946 4.93l-20.914 16.773zM64 206.666c-2.078 0.008-4.102-0.696-5.727-1.992l-33.57-26.766c-0.383-0.312-0.734-0.626-1.133-0.922l-20.117-16.11c-1.477-1.288-2.5-3.014-2.922-4.93h126.977c-0.414 1.923-1.453 3.658-2.945 4.93l-54.859 43.891c-1.633 1.258-3.641 1.93-5.703 1.899zM850.29 27.946c5.046 0 9.141 4.086 9.141 9.141v18.282c0 5.054-4.094 9.147-9.141 9.147h-257.829c5.070-11.664 5.070-24.914 0-36.57h257.829zM1024-36.054v155.422h-128v-155.422c0-5.054 4.094-9.149 9.141-9.149h109.718c5.046 0 9.141 4.094 9.141 9.149zM9.141-45.202h109.719c5.047 0 9.141 4.094 9.141 9.149v155.422h-128v-155.422c0-5.054 4.094-9.149 9.141-9.149zM9.141 212.337l26.336 21.024c16.68 13.328 40.367 13.328 57.047 0l29.445-23.587h780.062l29.445 23.587c16.68 13.328 40.366 13.328 57.046 0l26.336-21.024c5.594 3.274 9.070 9.242 9.141 15.726v703.999c-0.078 5.016-4.125 9.063-9.141 9.141h-1005.718c-5.016-0.078-9.062-4.125-9.141-9.141v-703.999c0.070-6.485 3.547-12.453 9.141-15.726v0zM969.141 922.915c10.101 0 18.29-8.18 18.29-18.281s-8.189-18.289-18.29-18.289c-10.094 0-18.282 8.188-18.282 18.289s8.187 18.281 18.282 18.281zM969.141 849.774c10.101 0 18.29-8.187 18.29-18.281 0-10.102-8.189-18.289-18.29-18.289-10.094 0-18.282 8.188-18.282 18.289 0 10.094 8.187 18.281 18.282 18.281zM969.141 776.634c10.101 0 18.29-8.189 18.29-18.29 0-10.094-8.189-18.282-18.29-18.282-10.094 0-18.282 8.187-18.282 18.282 0 10.101 8.187 18.29 18.282 18.29zM969.141 703.494c10.101 0 18.29-8.189 18.29-18.29s-8.189-18.29-18.29-18.29c-10.094 0-18.282 8.189-18.282 18.29s8.187 18.29 18.282 18.29zM969.141 630.345c10.101 0 18.29-8.187 18.29-18.282 0-10.101-8.189-18.29-18.29-18.29-10.094 0-18.282 8.189-18.282 18.29 0 10.094 8.187 18.282 18.282 18.282zM969.141 557.204c10.101 0 18.29-8.187 18.29-18.29 0-10.093-8.189-18.28-18.29-18.28-10.094 0-18.282 8.187-18.282 18.28 0 10.102 8.187 18.29 18.282 18.29zM969.141 484.063c10.101 0 18.29-8.187 18.29-18.29 0-10.101-8.189-18.28-18.29-18.28-10.094 0-18.282 8.179-18.282 18.28s8.187 18.29 18.282 18.29zM969.141 410.914c10.101 0 18.29-8.179 18.29-18.28s-8.189-18.29-18.29-18.29c-10.094 0-18.282 8.187-18.282 18.29 0 10.101 8.187 18.28 18.282 18.28zM969.141 337.774c10.101 0 18.29-8.187 18.29-18.28 0-10.102-8.189-18.29-18.29-18.29-10.094 0-18.282 8.187-18.282 18.29 0 10.093 8.187 18.28 18.282 18.28v0zM896 868.063c10.101 0 18.29-8.188 18.29-18.289s-8.189-18.281-18.29-18.281c-10.101 0-18.29 8.18-18.29 18.281s8.189 18.289 18.29 18.289zM896 776.634c10.101 0 18.29-8.189 18.29-18.29 0-10.094-8.189-18.282-18.29-18.282s-18.29 8.187-18.29 18.282c0 10.101 8.189 18.29 18.29 18.29zM896 685.204c10.101 0 18.29-8.187 18.29-18.29 0-10.093-8.189-18.28-18.29-18.28s-18.29 8.187-18.29 18.28c0 10.102 8.189 18.29 18.29 18.29zM896 593.774c10.101 0 18.29-8.187 18.29-18.28 0-10.102-8.189-18.29-18.29-18.29s-18.29 8.187-18.29 18.29c0 10.093 8.189 18.28 18.29 18.28zM896 502.345c10.101 0 18.29-8.187 18.29-18.282 0-10.101-8.189-18.29-18.29-18.29s-18.29 8.189-18.29 18.29c0 10.094 8.189 18.282 18.29 18.282zM896 410.914c10.101 0 18.29-8.179 18.29-18.28s-8.189-18.29-18.29-18.29-18.29 8.187-18.29 18.29c0 10.101 8.189 18.28 18.29 18.28zM896 319.494c10.101 0 18.29-8.189 18.29-18.29s-8.189-18.29-18.29-18.29c-10.101 0-18.29 8.189-18.29 18.29s8.189 18.29 18.29 18.29v0zM822.859 922.915c10.094 0 18.282-8.18 18.282-18.281s-8.187-18.289-18.282-18.289c-10.101 0-18.29 8.188-18.29 18.289s8.189 18.281 18.29 18.281zM822.859 813.204c10.094 0 18.282-8.188 18.282-18.29 0-10.093-8.187-18.28-18.282-18.28-10.101 0-18.29 8.187-18.29 18.28 0 10.102 8.189 18.29 18.29 18.29zM822.859 703.494c10.094 0 18.282-8.189 18.282-18.29s-8.187-18.29-18.282-18.29c-10.101 0-18.29 8.189-18.29 18.29s8.189 18.29 18.29 18.29zM822.859 593.774c10.094 0 18.282-8.187 18.282-18.28 0-10.102-8.187-18.29-18.282-18.29-10.101 0-18.29 8.187-18.29 18.29 0 10.093 8.189 18.28 18.29 18.28zM822.859 484.063c10.094 0 18.282-8.187 18.282-18.29 0-10.101-8.187-18.28-18.282-18.28-10.101 0-18.29 8.179-18.29 18.28s8.189 18.29 18.29 18.29zM822.859 374.345c10.094 0 18.282-8.187 18.282-18.282 0-10.101-8.187-18.29-18.282-18.29-10.101 0-18.29 8.189-18.29 18.29 0 10.094 8.189 18.282 18.29 18.282zM822.859 264.634c10.094 0 18.282-8.189 18.282-18.29 0-10.094-8.187-18.282-18.282-18.282-10.101 0-18.29 8.187-18.29 18.282 0 10.101 8.189 18.29 18.29 18.29zM749.71 904.634c10.102 0 18.29-8.188 18.29-18.289 0-10.094-8.187-18.281-18.29-18.281-10.093 0-18.28 8.188-18.28 18.281 0 10.102 8.187 18.289 18.28 18.289zM749.71 776.634c10.102 0 18.29-8.189 18.29-18.29 0-10.094-8.187-18.282-18.29-18.282-10.093 0-18.28 8.187-18.28 18.282 0 10.101 8.187 18.29 18.28 18.29zM749.71 667.47c10.102 0 18.29-8.187 18.29-18.29 0-10.101-8.187-18.28-18.29-18.28-10.093 0-18.28 8.179-18.28 18.28s8.187 18.29 18.28 18.29zM749.71 520.634c10.102 0 18.29-8.189 18.29-18.29 0-10.094-8.187-18.282-18.29-18.282-10.093 0-18.28 8.187-18.28 18.282 0 10.101 8.187 18.29 18.28 18.29zM749.71 411.47c10.102 0 18.29-8.187 18.29-18.29 0-10.101-8.187-18.28-18.29-18.28-10.093 0-18.28 8.179-18.28 18.28s8.187 18.29 18.28 18.29zM749.71 283.47c10.102 0 18.29-8.187 18.29-18.29 0-10.101-8.187-18.28-18.29-18.28-10.093 0-18.28 8.179-18.28 18.28s8.187 18.29 18.28 18.29zM676.57 813.204c10.102 0 18.29-8.188 18.29-18.29 0-10.093-8.187-18.28-18.29-18.28-10.101 0-18.28 8.187-18.28 18.28 0 10.102 8.179 18.29 18.28 18.29zM676.57 666.914c10.102 0 18.29-8.179 18.29-18.28s-8.187-18.29-18.29-18.29c-10.101 0-18.28 8.187-18.28 18.29 0 10.101 8.179 18.28 18.28 18.28zM676.57 520.634c10.102 0 18.29-8.189 18.29-18.29 0-10.094-8.187-18.282-18.29-18.282-10.101 0-18.28 8.187-18.28 18.282 0 10.101 8.179 18.29 18.28 18.29zM676.57 374.345c10.102 0 18.29-8.187 18.29-18.282 0-10.101-8.187-18.29-18.29-18.29-10.101 0-18.28 8.189-18.28 18.29 0 10.094 8.179 18.282 18.28 18.282zM603.43 904.634c10.101 0 18.28-8.188 18.28-18.289 0-10.094-8.179-18.281-18.28-18.281s-18.29 8.188-18.29 18.281c0 10.102 8.187 18.289 18.29 18.289zM603.43 758.345c10.101 0 18.28-8.187 18.28-18.282 0-10.101-8.179-18.29-18.28-18.29s-18.29 8.189-18.29 18.29c0 10.094 8.187 18.282 18.29 18.282zM603.43 593.774c10.101 0 18.28-8.187 18.28-18.28 0-10.102-8.179-18.29-18.28-18.29s-18.29 8.187-18.29 18.29c0 10.093 8.187 18.28 18.29 18.28zM603.43 429.204c10.101 0 18.28-8.187 18.28-18.29 0-10.093-8.179-18.28-18.28-18.28s-18.29 8.187-18.29 18.28c0 10.102 8.187 18.29 18.29 18.29zM603.43 282.914c10.101 0 18.28-8.179 18.28-18.28s-8.179-18.29-18.28-18.29c-10.102 0-18.29 8.187-18.29 18.29 0 10.101 8.187 18.28 18.29 18.28zM530.29 776.634c10.093 0 18.28-8.189 18.28-18.29 0-10.094-8.187-18.282-18.28-18.282-10.102 0-18.29 8.187-18.29 18.282 0 10.101 8.187 18.29 18.29 18.29zM530.29 593.774c10.093 0 18.28-8.187 18.28-18.28 0-10.102-8.187-18.29-18.28-18.29-10.102 0-18.29 8.187-18.29 18.29 0 10.093 8.187 18.28 18.29 18.28zM530.29 410.914c10.093 0 18.28-8.179 18.28-18.28s-8.187-18.29-18.28-18.29c-10.102 0-18.29 8.187-18.29 18.29 0 10.101 8.187 18.28 18.29 18.28zM457.141 886.345c10.101 0 18.29-8.188 18.29-18.281 0-10.102-8.189-18.289-18.29-18.289-10.094 0-18.282 8.188-18.282 18.289 0 10.094 8.187 18.281 18.282 18.281zM457.141 685.204c10.101 0 18.29-8.187 18.29-18.29 0-10.093-8.189-18.28-18.29-18.28-10.094 0-18.282 8.187-18.282 18.28 0 10.102 8.187 18.29 18.282 18.29zM457.141 484.063c10.101 0 18.29-8.187 18.29-18.29 0-10.101-8.189-18.28-18.29-18.28-10.094 0-18.282 8.179-18.282 18.28s8.187 18.29 18.282 18.29zM457.141 301.751c10.101 0 18.29-8.187 18.29-18.282 0-10.101-8.189-18.29-18.29-18.29-10.094 0-18.282 8.189-18.282 18.29 0 10.094 8.187 18.282 18.282 18.282z" />
<glyph unicode="&#xe917;" glyph-name="Cover" d="M992 256h-960c-17.664 0-32-14.336-32-32s14.336-32 32-32h960c17.664 0 32 14.336 32 32s-14.336 32-32 32zM992 128h-960c-17.664 0-32-14.336-32-32s14.336-32 32-32h960c17.664 0 32 14.336 32 32s-14.336 32-32 32zM992 0h-960c-17.664 0-32-14.336-32-32s14.336-32 32-32h960c17.664 0 32 14.336 32 32s-14.336 32-32 32zM64 960h885.333c41.174 0 74.667-33.493 74.667-74.667v-490.666c0-41.174-33.493-74.667-74.667-74.667h-885.333c-29.525 0-64 19.541-64 74.667v490.666c0 55.125 34.475 74.667 64 74.667zM304 928c-53.019 0-96-42.981-96-96v-384c0-53.019 42.981-96 96-96h384c53.019 0 96 42.981 96 96v384c0 53.019-42.981 96-96 96h-384zM539.597 619.082h-91.248c-1.203 0-2.178-0.974-2.178-2.176v-91.248c0-1.202 0.974-2.176 2.178-2.176h91.248c1.202 0 2.176 0.974 2.176 2.176v91.248c0 1.202-0.974 2.176-2.176 2.176zM413.061 693.542h-15.546v-253.77c0-4.293 3.48-7.773 7.773-7.773h177.445c4.291 0 7.773 3.48 7.773 7.773v253.77h-177.445zM555.218 525.579c0-8.586-6.958-15.544-15.544-15.544h-91.326c-8.586 0-15.544 6.958-15.544 15.544l0.155 91.25c0 8.586 6.958 15.544 15.544 15.544h91.171c8.586 0 15.544-6.958 15.544-15.544v-91.25zM536.88 743.597v35.83c0 4.293-3.48 7.773-7.773 7.773h-8.706v47.256c0.117 4.291-3.269 7.863-7.56 7.978-0.672 0.019-1.344-0.052-2-0.206l-37.229-9.249c-3.584-0.845-6.083-4.091-5.986-7.772v-38.241h-8.704c-4.293 0-7.773-3.48-7.773-7.773v-35.83c-38.862-9.482-50.133-30.467-52.698-36.842h191.046c-2.565 6.53-13.99 27.592-52.619 37.075zM602.712 821.088h-43.682c-4.293 0-7.773-3.48-7.773-7.772s3.48-7.772 7.773-7.772h43.682c4.291 0 7.771 3.48 7.771 7.772s-3.48 7.772-7.771 7.772zM605.118 859.094c-1.589 3.992-6.112 5.941-10.104 4.352l-38.862-15.545c-3.992-1.578-5.949-6.093-4.371-10.085 1.174-2.973 4.050-4.924 7.248-4.916 0.984-0.003 1.96 0.183 2.875 0.544l38.862 15.545c3.992 1.588 5.939 6.112 4.352 10.104zM600.613 777.795l-38.862 15.544c-3.992 1.589-8.515-0.36-10.104-4.352-1.587-3.992 0.362-8.517 4.354-10.104l38.862-15.546c3.992-1.589 8.515 0.36 10.104 4.352 1.587 3.994-0.362 8.517-4.354 10.106z" />
<glyph unicode="&#xe918;" glyph-name="Vinyls" d="M347.66-64.001c-113.83 375.090 126.692 512.045 126.692 512.045-16.829-200.152 96.913-356.083 96.913-356.083 41.833 12.621 121.679 71.611 121.679 71.611 0-71.611-42.132-227.483-42.132-227.483s147.488 114.039 193.916 303.45c46.367 189.408-88.319 379.565-88.319 379.565 8.115-134.061-37.238-265.913-126.095-366.647 4.445 5.133 8.174 10.832 11.040 17.008 15.962 31.926 41.593 114.905 26.584 307.060-21.125 269.732-265.525 383.474-265.525 383.474 21.066-164.346-42.102-202.211-190.066-514.164-147.965-311.894 135.314-509.836 135.314-509.836z" />
<glyph unicode="&#xe919;" glyph-name="NumberPlate" d="M921.375 630.936h-818.752c-56.586 0-102.624-46.037-102.624-102.622v-160.627c0-56.587 46.038-102.624 102.624-102.624h818.754c56.586 0 102.624 46.037 102.624 102.624v160.627c-0.002 56.586-46.040 102.622-102.626 102.622zM957.071 367.686c0-19.683-16.014-35.694-35.696-35.694h-818.752c-19.682 0-35.694 16.014-35.694 35.694v160.627c0 19.682 16.014 35.694 35.694 35.694h818.754c19.682 0 35.696-16.014 35.696-35.694v-160.627h-0.002zM230.81 392.296l-37.731 58.234 36.206 58.016c1.528 2.398 2.181 4.579 2.181 6.762 0 9.158-12.429 16.138-22.027 16.138-4.797 0-8.070-1.744-10.253-5.672l-29.008-50.602-29.005 50.602c-2.182 3.926-5.452 5.672-10.252 5.672-9.598 0-22.028-6.979-22.028-16.138 0-2.184 0.654-4.363 2.182-6.762l36.206-58.016-37.732-58.234c-1.31-2.182-1.964-4.142-1.964-6.107 0-9.378 13.306-16.794 22.682-16.794 3.49 0 6.546 1.090 8.070 3.49l31.841 54.088 31.843-54.088c1.309-2.397 4.581-3.49 8.069-3.49 9.379 0 22.685 7.416 22.685 16.794 0 1.963-0.656 3.926-1.965 6.107zM338.988 530.136c-5.45 0-7.632-2.182-9.814-6.325l-30.315-56.051-30.534 56.051c-2.398 4.142-4.362 6.325-9.814 6.325-9.378 0-23.12-5.89-23.12-13.958 0-0.654 0-1.528 0.438-2.398l45.146-74.81c0.438-0.654 0.874-1.744 0.874-3.051v-54.744c0-6.979 8.507-10.469 17.011-10.469 8.506 0 17.013 3.49 17.013 10.469v54.744c0 1.307 0.437 2.397 0.872 3.051l44.933 74.81c0.435 0.872 0.435 1.744 0.435 2.398-0.002 8.070-13.744 13.958-23.123 13.958zM467.879 400.363h-59.323l61.504 108.832c2.397 4.365 3.706 8.507 3.706 11.997 0 5.235-3.27 8.944-9.813 8.944h-84.187c-7.198 0-10.253-7.634-10.253-14.83 0-7.851 3.709-14.832 10.253-14.832h50.602l-61.504-108.832c-2.398-4.146-3.707-8.506-3.707-11.998 0-5.234 2.835-8.941 9.813-8.941h92.912c6.544 0 10.253 7.851 10.253 14.829-0.006 6.982-3.714 14.832-10.254 14.832zM622.889 530.136c-30.099 0-53.437-13.958-53.437-51.472v-57.797c0-37.514 23.338-51.472 53.437-51.472 30.098 0 53.653 13.958 53.653 51.472v57.797c0.003 37.515-23.555 51.472-53.653 51.472zM642.517 420.867c0-15.048-7.416-21.81-19.629-21.81-12.214 0-19.413 6.762-19.413 21.81v57.797c0 15.050 7.2 21.81 19.413 21.81 12.211 0 19.629-6.76 19.629-21.81v-57.797zM746.981 530.136c-30.098 0-53.435-13.958-53.435-51.472v-57.797c0-37.514 23.338-51.472 53.435-51.472 30.099 0 53.654 13.958 53.654 51.472v57.797c0 37.515-23.555 51.472-53.654 51.472zM766.612 420.867c0-15.048-7.416-21.81-19.63-21.81s-19.411 6.762-19.411 21.81v57.797c0 15.050 7.2 21.81 19.411 21.81 12.213 0 19.63-6.76 19.63-21.81v-57.797zM871.084 530.136c-30.098 0-53.437-13.958-53.437-51.472v-57.797c0-37.514 23.339-51.472 53.437-51.472s53.654 13.958 53.654 51.472v57.797c0 37.515-23.557 51.472-53.654 51.472zM890.714 420.867c0-15.048-7.416-21.81-19.63-21.81s-19.413 6.762-19.413 21.81v57.797c0 15.050 7.2 21.81 19.413 21.81 12.211 0 19.63-6.76 19.63-21.81v-57.797z" />
<glyph unicode="&#xe91a;" glyph-name="Armour" d="M345.568 519.904c18.34 45.008 54.053 80.72 99.061 99.061v167.737c-74.439-33.79-154.417-53.713-236.009-58.795-8.975-68.947-12.286-138.514-9.904-208.003h146.852zM489.556 630.643c14.9 2.066 30.015 2.066 44.915 0v179.888c-7.5 4.491-15.068 8.58-22.458 13.475-7.387-4.895-14.957-8.984-22.457-13.475v-179.888zM512.007 317.782c74.419 0 134.748 60.329 134.748 134.748s-60.329 134.748-134.748 134.748c-74.419 0-134.748-60.329-134.748-134.748s60.329-134.748 134.748-134.748zM201.394 474.989c1.258-14.89 2.987-29.891 5.030-44.916h127.47c-2.066 14.9-2.066 30.015 0 44.916h-132.501zM579.384 618.964c45.008-18.34 80.72-54.053 99.061-99.061h146.852c2.384 69.489-0.93 139.056-9.904 208.003-81.587 5.095-161.566 25.019-236.009 58.795v-167.737zM817.6 430.073c2.045 15.025 3.772 30.025 5.030 44.916h-132.501c2.066-14.902 2.066-30.016 0-44.916h127.47zM678.446 385.157c-18.34-45.008-54.053-80.72-99.061-99.061v-215.597c63.446 24.098 117.924 67.167 156.015 123.339 37.648 58.035 63.078 123.131 74.738 191.318h-131.693zM914.209 820.659c-2.026 10.821-11.658 18.535-22.66 18.145-58.121-2.244-239.086 0.63-363.816 115.030-8.817 8.221-22.489 8.221-31.305 0-124.775-114.446-305.742-117.41-363.953-115.030-11.021 0.437-20.698-7.262-22.748-18.099-23.873-122.621-129.224-790.944 402.286-884.705 531.51 93.761 426.161 762.083 402.198 884.659zM772.523 168.505c-59.75-86.763-152.127-145.592-256.018-163.044-2.963-0.615-6.021-0.615-8.984 0-103.891 17.453-196.268 76.281-256.021 163.044-121.631 177.237-105.416 441.925-84.935 583.904 1.539 10.665 10.436 18.732 21.2 19.224 110.862 2.712 218.714 36.625 311.174 97.849 7.776 5.509 18.184 5.509 25.96 0 92.465-61.222 200.315-95.136 311.177-97.849 10.763-0.492 19.66-8.559 21.2-19.224 20.572-141.957 36.787-406.667-84.756-583.904zM534.471 274.418c-14.9-2.066-30.015-2.066-44.915 0v-218.247c7.433-1.977 14.731-4.087 22.457-5.771 7.727 1.684 15.025 3.795 22.458 5.771v218.247zM444.632 286.095c-45.008 18.34-80.72 54.053-99.061 99.061h-131.693c11.669-68.163 37.099-133.236 74.741-191.25 38.089-56.172 92.568-99.241 156.013-123.339v215.529z" />
<glyph unicode="&#xe91b;" glyph-name="back" d="M402.264 739.592v183.846c-0.006 20.199-16.384 36.568-36.583 36.562-10.359-0.002-20.229-4.399-27.163-12.094l-329.144-365.719c-12.037-13.406-12.519-33.579-1.134-47.544l329.146-402.289c12.789-15.632 35.829-17.938 51.463-5.149 8.469 6.928 13.391 17.284 13.414 28.226v182.237c288.918-9.399 469.215-132.901 550.48-376.69 4.984-14.914 18.945-24.971 34.67-24.977 1.971-0.006 3.943 0.154 5.889 0.476 17.692 2.886 30.684 18.169 30.684 36.097-0.002 430.669-259.258 747.052-621.722 767.020z" />
<glyph unicode="&#xe91c;" glyph-name="user" d="M511.997 658c-82.706 0-150-67.294-150-150s67.294-150 150-150c82.706 0 150 67.294 150 150s-67.294 150-150 150zM1003.49 536.448l-54.091 17.374c-10.958 45.467-28.827 88.594-53.32 128.584l24.581 49.16c5.771 11.542 3.515 25.488-5.626 34.627l-84.845 84.844c-9.17 9.17-23.056 11.368-34.627 5.626l-49.19-24.61c-36.504 22.294-76.085 39.17-118.038 50.332l-29.501 61.032c-5.098 10.166-15.467 16.582-26.835 16.582h-120c-11.368 0-21.738-6.416-26.835-16.582l-29.502-61.034c-41.955-11.162-81.534-28.038-118.038-50.332l-49.19 24.61c-11.602 5.83-25.458 3.574-34.627-5.626l-84.844-84.842c-9.14-9.139-11.396-23.085-5.626-34.627l24.61-49.19c-22.294-36.504-39.17-76.083-50.332-118.038l-61.032-29.502c-10.166-5.098-16.582-15.467-16.582-26.835v-120c0-11.368 6.416-21.738 16.582-26.835l61.034-29.502c10.136-37.88 25.224-74.238 45-108.429l-20.918-62.723c-3.574-10.782-0.762-22.677 7.266-30.704l84.844-84.845c8.056-8.027 19.891-10.84 30.704-7.266l62.723 20.918c37.707-21.885 77.579-37.968 118.947-47.989l17.373-54.12c4.070-12.243 15.525-20.506 28.445-20.506h120c12.92 0 24.376 8.262 28.448 20.507l17.374 54.12c41.368 10.021 81.24 26.106 118.946 47.989l62.725-20.918c10.81-3.573 22.706-0.762 30.702 7.266l84.845 84.845c8.027 8.027 10.84 19.922 7.266 30.704l-20.917 62.725c21.883 37.706 37.966 77.578 47.987 118.946l54.12 17.374c12.242 4.067 20.504 15.523 20.504 28.443v120c0 12.92-8.262 24.374-20.507 28.448zM511.997 118c-181.962 0-330 148.038-330 330s148.038 330 330 330c181.962 0 330-148.038 330-330s-148.038-330-330-330zM657.899 357.506c-37.83-36.68-89.184-59.506-145.902-59.506s-108.080 22.826-145.906 59.506c-24.786-24.504-43.806-54.874-54.184-89.123 49.464-55.051 120.424-90.382 200.090-90.382 79.65 0 150.605 35.318 200.064 90.352-10.368 34.266-29.382 64.648-54.162 89.154z" />
</font>
</defs>
</svg>
