<?xml version="1.0" standalone="no"?>
<!DOCTYPE svg PUBLIC "-//W3C//DTD SVG 1.1//EN" "http://www.w3.org/Graphics/SVG/1.1/DTD/svg11.dtd" >
<svg xmlns="http://www.w3.org/2000/svg">
<metadata>Generated by IcoMoon</metadata>
<defs>
<font id="organisationsicon" horiz-adv-x="1024">
<font-face units-per-em="1024" ascent="960" descent="-64" />
<missing-glyph horiz-adv-x="1024" />
<glyph unicode="&#x20;" horiz-adv-x="512" d="" />
<glyph unicode="&#xe900;" glyph-name="hanger" horiz-adv-x="1280" d="M1219.13 209.306l-529.286 369.568v27.759c0 16.401 7.552 29.617 23.763 41.534 1.997 1.486 4.358 3.079 6.976 4.859 25.709 17.569 79.226 54.114 79.226 136.493 0 85.566-63.258 151.225-124.435 165.291-64.42 14.915-122.84-2.573-160.883-49.125-34.685-42.305-44.423-77.551-46.47-134.77-0.167-4.14-0.261-13.057-0.358-21.761-0.097-12.022 21.187-21.791 47.469-21.791h9.521c26.282 0 47.635 9.713 47.685 21.735 0.024 9.926 0.097 19.904 0.167 21.791 1.453 39.464 10.974 62.689 47.111 70.835 22.471 5.041 46.733-1.965 60.941-17.491 6.451-7.007 9.856-19.162 8.902-31.716-0.614-8.362-3.834-24.017-17.997-34.9l-45.348-34.422c-28.924-20.648-41.233-45.357-41.233-82.592v-61.81l-523.947-368.187c-77.658-53.395-61.588-144.454-54.802-171.104 6.215-24.282 34.471-103.501 137.362-103.501h999.551c72.704 0 118.701 52.704 132.102 104.992 13.875 54.669-1.171 132.275-56.019 168.314zM1165.35 80.698c-2.496-9.766-10.618-20.307-23.808-20.307-0.019 0-0.019 0-0.019 0h-999.29c-13.856 0.058-21.664 10.195-24.139 18.848-3.165 11.117 0.929 22.477 10.356 29.933l512.164 357.386 515.002-358.897c12.736-8.896 11.046-21.818 9.734-26.963z" />
<glyph unicode="&#xe901;" glyph-name="clothes" d="M89.936-64h751.445v362h182.618l-36.062 244.522c-16.859 101.238-106.437 175.474-208.992 175.474h-80.376l-97.014 48.542v18.6c34.898 12.384 59.96 45.752 59.96 84.859 0 49.63-40.344 90.003-89.938 90.003-49.586 0-89.93-40.373-89.93-90.003h59.954c0 16.543 13.445 30.006 29.976 30.006s29.978-13.463 29.978-30.006c0-16.536-13.446-29.999-29.978-29.999h-29.976v-73.452l-97.008-48.542h-80.382c-102.414 0-190.11-74.141-206.985-175.482l-36.070-244.522h180.624v-61.998h-211.843c-49.594 0-89.937-40.374-89.937-90.005 0-23.032 8.703-44.062 22.977-59.997-14.274-15.933-22.977-36.965-22.977-60.005 0-49.622 40.344-89.995 89.937-89.995zM89.936-4.003c-16.531 0-29.984 13.464-29.984 29.998 0 16.544 13.453 30.006 29.984 30.006h421.688c16.531 0 29.976-13.462 29.976-30.006 0-16.534-13.445-29.998-29.976-29.998-15.79 0-395.141 0-421.688 0zM841.381 357.997v60.005h104.32l8.845-60.005h-113.165zM659.765 670.334c-8.227-41.202-44.642-72.334-88.189-72.334s-79.952 31.141-88.179 72.334l88.179 44.126 88.189-44.126zM190.609 357.997l8.851 60.005h102.32v-60.005h-111.171zM301.78 537.995v-59.997h-93.469l8.094 54.923c12.203 72.491 74.328 125.075 147.813 125.075h60.483c13.931-68.378 74.493-120.002 146.883-120.002 72.382 0 132.946 51.624 146.875 120.002h60.485c73.437 0 137.797-53.749 149.813-125.075l8.093-54.923h-95.469v59.997h-59.952v-541.998h-185.032c3.328 9.39 5.157 19.483 5.157 29.998 0 23.040-8.696 44.072-22.97 60.005 14.274 15.934 22.97 36.965 22.97 59.997 0 49.63-40.344 90.005-89.93 90.005h-149.891v301.994h-59.954zM89.936 175.997h421.688c16.531 0 29.976-13.456 29.976-30 0-16.542-13.445-29.998-29.976-29.998h-421.688c-16.531 0-29.984 13.456-29.984 29.998 0 16.544 13.453 30 29.984 30z" />
<glyph unicode="&#xe902;" glyph-name="line" d="M170.668 320v277.332c0 50.922 20.228 99.757 56.236 135.764s84.843 56.236 135.764 56.236c50.922 0 99.757-20.228 135.764-56.236s56.236-84.843 56.236-135.764v-298.669c0-28.288 11.238-55.418 31.242-75.424 20.004-20 47.135-31.238 75.428-31.238 28.288 0 55.418 11.238 75.424 31.238 20 20.006 31.238 47.136 31.238 75.424v284.589c-28.48 10.065-52.48 29.875-67.77 55.928-15.283 26.053-20.87 56.671-15.763 86.442s20.576 56.779 43.667 76.249c23.091 19.47 52.326 30.149 82.534 30.149s59.437-10.679 82.534-30.149c23.091-19.47 38.56-46.477 43.667-76.249 5.101-29.772-0.48-60.389-15.763-86.442-15.29-26.052-39.296-45.862-67.77-55.928v-284.589c0-50.918-20.23-99.757-56.237-135.763s-84.845-56.237-135.763-56.237c-50.925 0-99.761 20.23-135.768 56.237s-56.236 84.845-56.236 135.763v298.669c0 28.29-11.238 55.421-31.242 75.425s-47.135 31.242-75.425 31.242c-28.29 0-55.421-11.238-75.425-31.242s-31.242-47.135-31.242-75.425v-277.332h128l-170.667-213.338-170.666 213.338h128z" />
<glyph unicode="&#xe903;" glyph-name="eye" d="M512 753.2c-195.646 0-373.068-107.040-503.988-280.901-10.683-14.244-10.683-34.144 0-48.388 130.92-174.071 308.342-281.107 503.988-281.107s373.065 107.037 503.991 280.897c10.679 14.244 10.679 34.144 0 48.388-130.926 174.070-308.345 281.111-503.991 281.111zM526.035 233.083c-129.872-8.169-237.122 98.87-228.952 228.952 6.703 107.249 93.633 194.18 200.882 200.882 129.872 8.169 237.12-98.87 228.952-228.952-6.912-107.039-93.843-193.97-200.882-200.882zM519.541 332.372c-69.963-4.399-127.778 53.206-123.169 123.169 3.561 57.814 50.482 104.526 108.297 108.297 69.963 4.399 127.777-53.206 123.169-123.17-3.771-58.023-50.692-104.735-108.297-108.296z" />
<glyph unicode="&#xe904;" glyph-name="phone" d="M256.001 704c0 33.948 13.485 66.505 37.49 90.509s56.563 37.491 90.51 37.491h255.999c33.946 0 66.502-13.485 90.509-37.491s37.491-56.562 37.491-90.509v-512c0-33.946-13.485-66.502-37.491-90.509s-56.563-37.491-90.509-37.491h-255.999c-33.948 0-66.505 13.485-90.51 37.491s-37.49 56.563-37.49 90.509v512zM576.001 256c0 16.973-6.743 33.254-18.745 45.254s-28.281 18.746-45.255 18.746c-16.974 0-33.252-6.746-45.255-18.746s-18.745-28.282-18.745-45.254c0-16.973 6.743-33.254 18.745-45.254s28.281-18.746 45.255-18.746c16.974 0 33.252 6.746 45.255 18.746s18.745 28.282 18.745 45.254zM115.649 657.024c3.972 7.503 4.801 16.275 2.304 24.389s-8.114 14.903-15.616 18.875c-7.503 3.972-16.276 4.801-24.389 2.304s-14.903-8.113-18.875-15.616c-38.913-73.638-59.195-155.688-59.072-238.976 0-86.208 21.376-167.552 59.072-238.976 1.967-3.712 4.646-7.008 7.884-9.683 3.238-2.682 6.973-4.698 10.991-5.933s8.239-1.67 12.424-1.274c4.185 0.397 8.25 1.613 11.965 3.578s7.006 4.646 9.685 7.885c2.68 3.238 4.695 6.97 5.931 10.989s1.669 8.243 1.274 12.422c-0.396 4.186-1.611 8.256-3.578 11.968-34.033 64.41-51.765 136.177-51.648 209.024 0 75.52 18.688 146.688 51.648 209.024zM964.928 686.976c-3.974 7.503-10.758 13.12-18.874 15.616s-16.89 1.668-24.39-2.304c-7.501-3.972-13.12-10.762-15.616-18.875s-1.67-16.886 2.304-24.389c32.96-62.336 51.648-133.44 51.648-209.024 0-75.52-18.688-146.688-51.648-209.024-3.974-7.501-4.8-16.275-2.304-24.39s8.115-14.899 15.616-18.874c7.501-3.974 16.275-4.8 24.39-2.304s14.899 8.115 18.874 15.616c38.912 73.638 59.194 155.688 59.072 238.976 0.122 83.288-20.16 165.338-59.072 238.976zM213.761 564.352c1.786 3.955 2.749 8.232 2.829 12.572s-0.721 8.649-2.358 12.668c-1.637 4.019-4.075 7.663-7.164 10.711s-6.767 5.435-10.808 7.017c-4.042 1.581-8.362 2.324-12.7 2.184s-8.601-1.162-12.531-3.002c-3.93-1.84-7.446-4.46-10.332-7.702s-5.082-7.036-6.456-11.152c-17.379-44.506-26.278-91.869-26.24-139.648 0-49.216 9.28-96.32 26.24-139.648 1.373-4.115 3.57-7.91 6.456-11.155 2.886-3.238 6.401-5.856 10.332-7.699 3.93-1.837 8.194-2.861 12.531-3.002s8.659 0.602 12.7 2.182c4.041 1.581 7.718 3.968 10.808 7.021 3.089 3.046 5.527 6.688 7.164 10.707s2.44 8.333 2.358 12.672c-0.081 4.337-1.044 8.614-2.829 12.57-14.446 37.087-21.827 76.55-21.76 116.352 0 41.088 7.68 80.32 21.76 116.352zM869.76 587.648c-3.373 7.477-9.498 13.372-17.094 16.467s-16.096 3.153-23.731 0.163c-7.642-2.991-13.843-8.801-17.318-16.231-3.482-7.43-3.974-15.913-1.376-23.695 14.080-36.032 21.76-75.264 21.76-116.352s-7.68-80.32-21.76-116.352c-2.598-7.782-2.106-16.262 1.376-23.693 3.475-7.43 9.677-13.242 17.318-16.23 7.635-2.995 16.134-2.938 23.731 0.16s13.722 8.992 17.094 16.467c17.024 43.328 26.24 90.432 26.24 139.648s-9.28 96.32-26.24 139.648z" />
<glyph unicode="&#xe905;" glyph-name="rupor" d="M832 800c0 25.461 10.116 49.879 28.116 67.882 18.008 18.003 42.423 28.118 67.884 28.118s49.876-10.114 67.884-28.118c18-18.003 28.116-42.421 28.116-67.882v-704c0-25.461-10.116-49.876-28.116-67.884-18.008-18-42.423-28.116-67.884-28.116s-49.876 10.116-67.884 28.116c-18 18.008-28.116 42.423-28.116 67.884v704zM768 753.664c-132.288-60.8-290.496-94.784-448-105.984v-399.168c23.247-1.311 46.463-3.124 69.632-5.44 131.392-13.056 258.432-42.756 378.368-99.836v610.428zM256 251.84v392.384c-43.52-1.728-89.536-2.752-128.512-3.392-33.898-0.47-66.256-14.236-90.102-38.333s-37.272-56.598-37.386-90.499v-128c0-70.784 57.344-127.744 127.616-128.576 10.582-0.132 21.163-0.304 31.744-0.513 32.225-0.644 64.44-1.668 96.64-3.071zM344.96 182.652c18.24-1.339 36.416-3.006 54.4-4.988l16.192-108.156c1.761-9.26 1.458-18.79-0.889-27.919-2.347-9.121-6.68-17.62-12.69-24.876s-13.548-13.093-22.075-17.101c-8.528-4.008-17.835-6.085-27.257-6.078h-35.072c-12.44 0-24.61 3.628-35.022 10.437s-18.613 16.501-23.602 27.904l-84.096 158.72c36.112-0.907 72.211-2.267 108.288-4.103 20.928-1.083 41.6-2.363 61.824-3.84z" />
<glyph unicode="&#xe906;" glyph-name="shop" d="M307.201 140.801c-56.554 0-102.4-45.846-102.4-102.4s45.846-102.4 102.4-102.4c56.554 0 102.4 45.846 102.4 102.4v0c0 56.554-45.846 102.4-102.4 102.4v0zM0.001 959.999v-102.4h102.4l184.319-388.607-69.12-125.44c-8.052-14.003-12.801-30.79-12.801-48.687 0-0.164 0-0.327 0.001-0.49v0.025c0-56.554 45.846-102.4 102.4-102.4h614.398v102.4h-592.894c-0.025 0-0.056 0-0.086 0-7.022 0-12.715 5.693-12.715 12.715 0 0.030 0 0.060 0 0.090v-0.005l1.536 6.144 46.080 83.456h381.439c0.104 0 0.228-0.001 0.351-0.001 38.238 0 71.556 21.064 88.984 52.221l0.265 0.515 183.295 332.287c3.869 6.934 6.147 15.211 6.147 24.021 0 0.195-0.001 0.39-0.003 0.585v-0.030c0 28.277-22.923 51.2-51.2 51.2h-757.246l-48.128 102.4h-167.424zM819.199 140.801c-56.554 0-102.4-45.846-102.4-102.4s45.846-102.4 102.4-102.4c56.554 0 102.4 45.846 102.4 102.4v0c0 56.554-45.846 102.4-102.4 102.4v0z" />
<glyph unicode="&#xe907;" glyph-name="gps" d="M431.787 594.261h-66.048v219.705l146.261 146.034 146.318-146.034v-219.591h-66.105l-80.441 80.27-5.689-5.689zM658.261 528.213v66.048h219.762l145.977-146.261-145.977-146.318h-219.648v66.105l80.27 80.441-5.689 5.689zM592.213 301.739h66.048v-219.762l-146.261-145.977-146.318 145.977v219.648h66.105l80.441-80.27 5.689 5.689zM365.739 528.213v66.048h-219.705l-146.034-146.261 146.034-146.318h219.705v66.048l-80.384 80.498 5.689 5.689z" />
<glyph unicode="&#xe908;" glyph-name="loop" d="M967.099-63.89c-0.114-0.001-0.249-0.001-0.385-0.001-15.502 0-29.542 6.257-39.733 16.384l-292.97 293.032c-65.35-49.255-147.909-78.886-237.388-78.886-219.049 0-396.625 177.575-396.625 396.625s177.575 396.625 396.625 396.625c219.049 0 396.625-177.575 396.625-396.625 0-89.479-29.631-172.038-79.615-238.4l0.729 1.012 292.973-293.035c10.294-10.253 16.662-24.44 16.662-40.114 0-31.269-25.348-56.616-56.616-56.616-0.034 0-0.069 0-0.103 0h0.005zM396.483 846.674c-156.445 0-283.269-126.823-283.269-283.269s126.823-283.269 283.269-283.269c156.424 0 283.232 126.788 283.269 283.204v0.003c-0.176 156.386-126.886 283.119-283.248 283.33h-0.020z" />
<glyph unicode="&#xe909;" glyph-name="personal" d="M512 732.416v227.584h-512v-1024h1024v796.416zM204.8 49.793h-102.4v113.793h102.4zM204.8 277.376h-102.4v113.727h102.4zM204.8 504.96h-102.4v113.727h102.4zM204.8 732.544h-102.4v113.664h102.4zM409.6 49.793h-102.4v113.793h102.4zM409.6 277.376h-102.4v113.727h102.4zM409.6 504.96h-102.4v113.727h102.4zM409.6 732.544h-102.4v113.664h102.4zM921.6 49.856h-409.6v113.727h102.4v113.727h-102.4v113.793h102.4v113.793h-102.4v113.792h409.6zM819.2 504.96h-102.4v-113.793h102.4zM819.2 277.376h-102.4v-113.793h102.4z" />
<glyph unicode="&#xe90a;" glyph-name="park" horiz-adv-x="768" d="M413.568 959.972h-413.568v-1024h236.288v341.312h177.216c1.848-0.035 4.028-0.055 6.213-0.055 189.956 0 344.401 152.042 348.277 341.070l0.006 0.362c-3.918 189.361-158.349 341.366-348.282 341.366-2.162 0-4.32-0.020-6.473-0.059l0.323 0.005zM425.408 504.868h-189.12v227.52h189.056c1.138 0.041 2.475 0.064 3.817 0.064 62.881 0 113.856-50.975 113.856-113.856s-50.975-113.856-113.856-113.856c-1.342 0-2.679 0.023-4.010 0.069l0.193-0.005z" />
<glyph unicode="&#xe90b;" glyph-name="tasks" horiz-adv-x="796" d="M472.654 959.746c20.070-68.111 33.29-146.931 36.773-228.273l0.070-2.055c0.185-2.957 0.29-6.414 0.29-9.895 0-93.356-75.68-169.037-169.037-169.037-0.342 0-0.684 0.001-1.024 0.003h0.052c-0.847-0.015-1.846-0.023-2.847-0.023-98.16 0-177.736 79.575-177.736 177.736 0 0.428 0.002 0.856 0.005 1.282v-0.066l1.478 17.057c-99.713-113.163-160.599-262.621-160.678-426.299v-0.016c3.989-212.871 177.492-383.907 390.942-383.907 2.482 0 4.958 0.023 7.429 0.069l-0.371-0.005c2.1-0.041 4.576-0.064 7.058-0.064 213.451 0 386.953 171.035 390.937 383.534l0.006 0.373c-2.816 260.781-128.275 491.687-321.33 638.12l-2.017 1.466zM383.559 80.28c-1.461-0.049-3.178-0.077-4.902-0.077-84.188 0-152.739 66.95-155.315 150.512l-0.006 0.237c1.095 78.843 61.948 143.132 139.252 149.666l0.559 0.038c91.882 14.27 171.392 59.036 229.573 123.44l0.301 0.338c18.611-57.613 29.34-123.899 29.34-192.69 0-0.4 0-0.799-0.001-1.197v0.062c-2.439-127.744-106.567-230.364-234.666-230.364-1.453 0-2.904 0.013-4.352 0.040l0.217-0.003z" />
<glyph unicode="&#xe90c;" glyph-name="achivments" d="M512 137.023l316.544-201.024-83.968 378.88 279.424 254.72-368.191 32.896-143.808 357.504-143.808-357.312-368.191-33.088 279.615-254.72-84.032-378.88z" />
<glyph unicode="&#xe90d;" glyph-name="settings" d="M903.679 398.165c2.018 14.911 3.213 32.215 3.291 49.784v0.096c0 0.23 0.001 0.503 0.001 0.774 0 17.34-1.437 34.342-4.198 50.898l0.247-1.794 111.239 84.545c5.945 4.798 9.716 12.085 9.716 20.252 0 4.532-1.161 8.793-3.203 12.502l0.067-0.134-105.316 177.281c-4.844 7.872-13.412 13.042-23.188 13.042-3.25 0-6.367-0.571-9.255-1.62l0.189 0.060-130.986-51.195c-25.64 19.424-54.93 36.207-86.266 49.014l-2.594 0.937-19.82 135.447c-2.044 12.515-12.777 21.948-25.713 21.948-0.217 0-0.433-0.003-0.647-0.009h-210.6c-0.157 0.003-0.341 0.006-0.526 0.006-12.806 0-23.396-9.485-25.129-21.812l-0.016-0.134-19.747-135.667c-33.928-13.856-63.207-30.604-89.893-50.619l1.033 0.741-130.986 51.195c-2.785 1.091-6.011 1.724-9.385 1.724-9.723 0-18.218-5.257-22.801-13.082l-0.067-0.124-105.316-177.134c-2.278-3.637-3.63-8.056-3.63-12.792 0-8.145 3.998-15.356 10.139-19.778l0.073-0.050 111.239-84.472c-2.935-15.581-4.614-33.505-4.614-51.821 0-16.956 1.438-33.577 4.201-49.745l-0.246 1.736-111.239-84.472c-5.945-4.798-9.716-12.085-9.716-20.252 0-4.532 1.161-8.793 3.203-12.502l-0.067 0.134 105.316-177.281c4.844-7.872 13.412-13.042 23.188-13.042 3.25 0 6.367 0.571 9.255 1.62l-0.189-0.060 130.986 51.195c25.64-19.397 54.93-36.157 86.265-48.941l2.595-0.937 19.747-135.667c2.271-12.549 13.112-21.941 26.146-21.941 0.064 0 0.129 0 0.193 0h210.621c0.271-0.010 0.59-0.017 0.91-0.017 12.723 0 23.221 9.526 24.748 21.836l0.013 0.121 19.747 135.667c33.928 13.856 63.207 30.604 89.893 50.619l-1.033-0.741 130.986-51.195c2.775-1.083 5.989-1.711 9.351-1.711 9.748 0 18.261 5.282 22.835 13.14l0.067 0.126 105.316 177.281c2.278 3.637 3.63 8.056 3.63 12.792 0 8.145-3.998 15.356-10.139 19.778l-0.073 0.050-109.704 84.472zM511.964 256.061c-0.639-0.007-1.394-0.011-2.15-0.011-106.708 0-193.433 85.559-195.314 191.817l-0.003 0.176c0 109.058 88.409 197.467 197.467 197.467s197.467-88.409 197.467-197.467v0c-1.884-106.434-88.609-191.993-195.317-191.993-0.756 0-1.511 0.004-2.264 0.013l0.114-0.001z" />
<glyph unicode="&#xe90e;" glyph-name="up" horiz-adv-x="1536" d="M180.48-64l587.52 632.96 587.52-632.96 180.48 194.816-768 829.184-768-829.184z" />
<glyph unicode="&#xe90f;" glyph-name="down" horiz-adv-x="1536" d="M1355.52 960l-587.52-632.96-587.52 632.96-180.48-194.816 768-829.184 768 829.184z" />
<glyph unicode="&#xe910;" glyph-name="clock" horiz-adv-x="1017" d="M1016.914 763.69l-233.87 196.271-65.581-77.799 233.87-196.271zM298.987 881.925l-65.030 78.036-233.87-195.719 65.581-77.799 233.397 195.719zM533.961 647.819h-76.301v-305.048l241.516-144.878 38.151 62.507-203.365 120.443zM508.501 851.184c-252.71 0-457.572-204.862-457.572-457.572s204.862-457.572 457.572-457.572c252.71 0 457.572 204.862 457.572 457.572v0c-0.045 252.692-204.881 457.528-457.568 457.572h-0.004zM508.501 37.723c-196.552 0-355.889 159.337-355.889 355.889s159.337 355.889 355.889 355.889c196.552 0 355.889-159.337 355.889-355.889v0c0-0.094 0-0.205 0-0.315 0-196.422-159.231-355.653-355.653-355.653-0.083 0-0.166 0-0.249 0h0.013z" />
<glyph unicode="&#xe911;" glyph-name="edit" d="M0.037 149.339v-213.339h213.339l629.474 629.095-213.339 213.339zM1007.348 730.124c10.265 10.254 16.615 24.427 16.615 40.082s-6.35 29.827-16.615 40.081v0l-133.099 133.099c-10.254 10.265-24.427 16.615-40.082 16.615s-29.827-6.35-40.081-16.615l-103.902-104.053 213.111-213.187 104.052 104.052z" />
<glyph unicode="&#xe912;" glyph-name="send" d="M0.455 9.143l1023.545 438.857-1023.545 438.857-0.455-341.334 731.429-97.523-731.429-97.523z" />
<glyph unicode="&#xe913;" glyph-name="info" horiz-adv-x="439" d="M195.291-42.055c-23.544 14.361-41.788 35.387-52.346 60.445l-0.317 0.848c-10.732 33.51-16.917 72.058-16.917 112.050 0 8.803 0.3 17.537 0.89 26.19l-0.064-1.17v320.951c0.235 3.505 0.368 7.597 0.368 11.721 0 18.898-2.807 37.141-8.028 54.333l0.345-1.323c-5.36 11.586-13.842 20.962-24.37 27.274l-0.279 0.155c-8.835 3.993-19.156 6.32-30.020 6.32-2.436 0-4.844-0.117-7.22-0.346l0.302 0.024c-17.885-2.369-34.013-6.364-49.392-11.925l1.63 0.515-9.801 25.966 232.594 87.771h31.232v-551.936c-0.542-4.692-0.851-10.128-0.851-15.637 0-26.563 7.188-51.447 19.724-72.813l-0.368 0.678c6.128-7.112 13.762-12.751 22.421-16.452l0.399-0.152c7.558-3.278 16.36-5.185 25.607-5.185 1.026 0 2.048 0.023 3.063 0.070l-0.144-0.005c8.886 0.022 17.308 1.987 24.871 5.493l-0.368-0.153c7.708 3.514 14.201 8.461 19.392 14.551l0.064 0.077c16.036 23.738 26.348 52.543 28.353 83.611l0.026 0.503h32.841c-0.359-54.4-20.578-104.010-53.76-142.008l0.22 0.257c-13.867-13.534-30.435-24.37-48.812-31.617l-0.998-0.347c-16.88-6.772-36.449-10.7-56.935-10.7-0.915 0-1.829 0.008-2.741 0.023l0.137-0.002c-0.481-0.005-1.050-0.009-1.619-0.009-29.228 0-56.549 8.164-79.808 22.335l0.678-0.384zM90.916 814.96c-8.443 7.68-15.24 17.007-19.906 27.491l-0.208 0.523c-4.17 9.173-6.601 19.893-6.601 31.181 0 0.584 0.007 1.166 0.019 1.747l-0.002-0.086c-0.004 0.286-0.006 0.624-0.006 0.963 0 11.282 2.454 21.991 6.857 31.623l-0.195-0.475c4.904 10.756 11.667 19.861 19.964 27.287l0.078 0.068c8.179 7.83 17.902 14.124 28.658 18.37l0.599 0.209c9.933 3.899 21.435 6.16 33.465 6.16 0.603 0 1.206-0.006 1.806-0.017l-0.090 0.001c0.427 0.007 0.931 0.011 1.436 0.011 12.026 0 23.524-2.258 34.093-6.374l-0.64 0.219c11.355-4.454 21.078-10.748 29.289-18.609l-0.032 0.031c8.361-7.48 15.121-16.558 19.832-26.776l0.209-0.507c4.255-9.215 6.736-19.997 6.736-31.359 0-0.367-0.003-0.733-0.008-1.098l0.001 0.055c0.011-0.477 0.017-1.038 0.017-1.601 0-11.308-2.43-22.048-6.796-31.727l0.197 0.487c-4.916-10.889-11.705-20.114-20.043-27.658l-0.071-0.063c-8.175-7.881-17.898-14.221-28.659-18.514l-0.598-0.211c-10.102-4.031-21.809-6.368-34.063-6.368-0.342 0-0.683 0.002-1.024 0.005h0.052c-0.289-0.003-0.631-0.005-0.972-0.005-12.254 0-23.961 2.338-34.701 6.591l0.638-0.223c-11.356 4.484-21.078 10.8-29.287 18.68l0.030-0.029z" />
<glyph unicode="&#xe914;" glyph-name="icon" d="M496.326 960l-287.332-470.213h574.726zM997.887 155.433c0-121.189-98.244-219.433-219.433-219.433s-219.433 98.244-219.433 219.433c0 121.189 98.244 219.433 219.433 219.433s219.433-98.244 219.433-219.433zM26.113 359.192h417.988v-417.988h-417.988z" />
<glyph unicode="&#xe915;" glyph-name="add" d="M246.88 79.48c26.466-26.466 62.030-41.353 99.248-41.353s72.782 14.887 99.248 41.353l535.931 535.939c53.759 53.759 57.895 142.256 5.789 197.669-54.586 58.722-146.391 59.549-201.796 3.308l-380.451-380.451c-32.256-32.256-84.361-32.256-116.616 0l-48.797 49.624c-54.586 54.586-143.91 54.586-198.496 0-54.586-54.595-54.586-143.91 0-198.496l205.94-207.594z" />
<glyph unicode="&#xe916;" glyph-name="dell" d="M1009.645 869.084l-70.735 69.895c-19.14 19.14-50.763 19.14-70.735 0l-352.845-352.837-359.494 359.494c-19.149 19.149-50.771 19.149-70.735 0l-70.735-70.735c-19.149-19.14-19.149-50.763 0-70.735l358.67-358.67-352.013-353.677c-19.14-19.14-19.14-50.763 0-70.735l70.735-70.735c19.14-19.14 50.763-19.14 70.735 0l352.837 352.845 352.845-352.845c19.14-19.14 50.763-19.14 70.735 0l70.735 70.735c19.14 19.14 19.14 50.763 0 70.735l-353.677 352.845 352.845 352.837c19.972 19.989 19.972 51.612 0.832 71.584z" />
<glyph unicode="&#xe917;" glyph-name="plus" d="M461.223-64h101.554c27.927 0 50.777 22.85 50.777 50.777v359.669h359.669c27.927 0 50.777 22.85 50.777 50.777v101.554c0 27.927-22.85 50.777-50.777 50.777h-359.669v359.669c0 27.927-22.85 50.777-50.777 50.777h-101.554c-27.927 0-50.777-22.85-50.777-50.777v-359.669h-359.669c-27.927 0-50.777-22.85-50.777-50.777v-101.554c0-27.927 22.85-50.777 50.777-50.777h359.669v-359.669c0-27.927 22.85-50.777 50.777-50.777z" />
<glyph unicode="&#xe918;" glyph-name="minus" d="M924.903 547.097h-825.806c-54.503 0-99.097-44.594-99.097-99.097s44.594-99.097 99.097-99.097h825.806c54.503 0 99.097 44.594 99.097 99.097s-44.594 99.097-99.097 99.097z" />
<glyph unicode="&#xe919;" glyph-name="sellcar" d="M558.181 806.602c-76.149-7.098-136.181-70.628-136.181-148.603v-90h-168.054l-120-180.001h634.11l-120 180.001h-166.057v90c0 45.765 34.456 83.245 78.718 88.861l118.861-118.863h344.422v300.003h-344.422zM722.001 807.999h180.001v-60.001h-180.001zM120 28h180.001v-60.001h-180.001zM601.999 28h180.001v-60.001h-180.001zM60.001 273.525v-35.527h149.999c49.629 0 90-40.372 90-90v-60.001h302.001v60.001c0 49.629 40.372 90 90 90h149.999v35.527c34.845 12.426 60.001 45.413 60.001 84.473v30.002h-60.001v-29.999c0-16.551-13.448-29.999-29.999-29.999h-722.001c-16.551 0-29.999 13.448-29.999 29.999v29.999h-60.001v-29.999c0-39.060 25.156-72.049 60.001-84.475zM360 237.999h182.001v-60.001h-182.001zM842.001 178h-149.999c-16.551 0-29.999-13.448-29.999-29.999v-60.001h90c49.625 0 89.998 40.372 89.998 90zM240 87.999v60.001c0 16.551-13.448 29.999-29.999 29.999h-149.999c0-49.629 40.372-90 90-90z" />
<glyph unicode="&#xe91a;" glyph-name="tuning" d="M122.729 619.896l71.419 71.419c-11.326 41.425 2.936 92.393 40.586 130.043 28.106 28.106 65.021 44.257 101.098 44.257 8.39 0 18.458-0.944 28.945-3.671l71.419 71.419c-29.574 17.409-63.973 26.638-100.364 26.638-60.931 0-122.177-26.218-167.902-71.943-42.159-42.159-67.538-96.379-71.419-152.8-1.993-28.316 1.573-55.688 10.382-81.382 4.3-11.956 9.543-23.282 15.836-33.979zM381.242-3.996c12.48-12.479 28.735-18.667 45.096-18.667 16.255 0 32.617 6.188 45.096 18.667l287.668 287.669c7.236 7.235 16.15 12.585 25.904 15.731l131.826 41.53c34.294 10.802 44.886 54.115 19.402 79.494l-461.967 462.072-444.662-444.769c-24.855-24.855-24.855-65.231 0-90.085l351.639-351.641zM123.674 388.86h679.055c6.607 0 7.865-9.439 1.363-11.118l-67.538-17.198c-2.727-0.734-5.244-2.097-7.341-4.195l-295.009-293.96c-6.186-6.188-16.255-6.188-22.548 0l-299.204 299.204c-10.069 10.068-2.936 27.267 11.221 27.267zM926.794 278.114c-4.824 4.511-11.012 6.923-17.409 7.132-9.648-0.316-19.087-5.663-23.596-16.047-0.63-1.573-1.364-3.040-1.993-4.613-16.046-37.125-33.455-73.517-47.927-111.272-22.442-58.519-54.324-138.327-0.943-190.029 20.555-19.926 47.611-28.422 74.46-27.162 26.848-1.258 53.904 7.236 74.46 27.162 53.379 51.703 21.499 131.51-0.944 190.029-15.102 39.327-33.35 77.188-49.815 115.885-1.679 3.566-3.776 6.608-6.293 8.914z" />
<glyph unicode="&#xe91b;" glyph-name="edit1" d="M496.361 316.109c38.502 0 75.366-11.469 107.315-32.768 0 0 158.925 160.563 167.117 164.659v464.486c0 26.214-22.938 47.514-49.971 47.514h-651.264c-26.214 0-44.237-21.299-44.237-47.514v-889.651c0-26.206 18.022-45.056 44.237-45.056h312.934l-19.661 18.022c-36.045 36.045-54.886 81.92-54.886 132.71s19.661 97.485 54.886 133.53c36.045 34.406 82.739 54.067 133.53 54.067zM271.081 830.566c0 26.214 21.299 47.514 47.514 47.514h322.765c26.214 0 47.514-21.299 47.514-47.514v-19.661c0-26.214-21.299-47.514-47.514-47.514h-322.765c-26.214 0-47.514 21.299-47.514 47.514v19.661zM271.081 650.342c0 26.214 21.299 47.514 47.514 47.514h322.765c26.214 0 47.514-21.299 47.514-47.514v-19.661c0-26.214-21.299-47.514-47.514-47.514h-322.765c-26.214 0-47.514 21.299-47.514 47.514v19.661zM157.213 408.678c-31.13 0-55.706 24.576-55.706 55.706s24.576 55.706 55.706 55.706c31.13 0 55.706-24.576 55.706-55.706s-25.395-55.706-55.706-55.706zM157.213 591.36c-31.13 0-55.706 24.576-55.706 55.706s24.576 55.706 55.706 55.706c31.13 0 55.706-24.576 55.706-55.706 0-30.31-25.395-55.706-55.706-55.706zM157.213 766.669c-31.13 0-55.706 24.576-55.706 55.706s24.576 55.706 55.706 55.706c31.13 0 55.706-24.576 55.706-55.706s-25.395-55.706-55.706-55.706zM271.081 458.65v19.661c0 26.214 21.299 47.514 47.514 47.514h322.765c26.214 0 47.514-21.299 47.514-47.514v-19.661c0-26.214-21.299-47.514-47.514-47.514h-322.765c-26.214 0-47.514 21.299-47.514 47.514zM551.248-40.243c15.557-15.565 36.037-23.757 57.344-23.757 21.299 0 41.779 8.192 57.344 23.757l308.019 308.019c31.13 31.13 33.595 81.92 3.277 113.869-31.13 33.587-84.378 34.398-116.326 1.63l-218.726-218.718c-18.842-18.85-48.325-18.85-67.174 0l-28.672 28.672c-31.941 31.941-82.739 31.941-114.688 0-31.949-31.949-31.949-82.747 0-114.688l119.603-118.784z" />
<glyph unicode="&#xe91c;" glyph-name="save" d="M298.656-64h656.218c34.991 0 63.258 28.371 63.258 63.258v552.715c0 26.165-21.122 47.286-47.286 47.286h-273.731c-26.165 0-47.286 21.121-47.286 47.286v266.060c0 26.165-21.122 47.286-47.286 47.286h-303.888c-34.991 0-63.258-28.371-63.258-63.258v-81.121l424.625-421.682c11.138-11.139 19.649-24.904 24.587-39.825l50.123-153.1c4.203-12.819 5.149-26.479 2.837-39.72-2.102-12.189-7.145-24.062-14.501-34.151-15.553-21.435-40.455-34.256-66.725-34.256-6.725 0-13.555 0.841-20.071 2.521l-162.766 40.981c-17.444 4.413-33.52 13.451-46.235 26.061l-191.979 190.612v-353.591c0-34.99 28.371-63.362 63.363-63.362zM997.221 671.343c18.704 0 28.056 22.592 14.817 35.832l-246.516 246.62c-13.24 13.24-35.832 3.888-35.832-14.816v-246.515c0-11.664 9.457-21.121 21.121-21.121h246.41zM126.956 812.779c-13.345 0-26.795-4.413-35.622-13.24l-72.294-72.294c-17.443-17.443-17.758-52.855-0.63-69.983l63.047-62.627 142.907 142.907-63.047 62.627c-8.511 8.406-21.331 12.609-34.361 12.609zM439.041 239.468l142.907 142.907-312.82 310.719-142.907-142.907 109.072-108.442zM651.721 156.351c1.576-0.42 3.152-0.632 4.729-0.632 12.609 0 22.592 12.609 18.494 25.429l-50.228 153.1c-0.105 0.42-0.315 0.841-0.419 1.156l-137.548-137.443c0.736-0.21 1.471-0.419 2.102-0.63l162.871-40.98z" />
<glyph unicode="&#xe91d;" glyph-name="crime" d="M412 337.774v-15.774c0-55.228 44.772-100 100-100s100 44.772 100 100v15.774c-31.186-11.492-64.874-17.774-100-17.774-35.128 0-68.814 6.282-100 17.774zM829.906 669.426l-70.718 56.574 70.718 56.574c12.938 10.35 15.036 29.228 4.684 42.166s-29.226 15.038-42.166 4.686l-50.424-40.34v0.914c0 93.738-76.262 170-170 170h-120c-93.738 0-170-76.262-170-170v-35.212c2.298 14.288 14.648 25.212 29.582 25.212h399.164c16.568 0 30-13.432 30-30v-20c0-71.682-58.318-130-130-130-39.942 0-75.716 18.124-99.582 46.56-23.866-28.436-59.64-46.56-99.582-46.56-68.338 0-124.486 53.014-129.582 120.068v-110.068c0-126.822 103.178-230 230-230s230 103.178 230 230v52.914l50.424-40.338c5.532-4.426 12.15-6.576 18.722-6.576 8.8 0 17.52 3.856 23.446 11.262 10.35 12.936 8.252 31.814-4.686 42.164zM481.288 720h-138.576c4.868-33.878 34.084-60 69.288-60s64.42 26.122 69.288 60zM681.288 720h-138.576c4.868-33.878 34.084-60 69.288-60s64.42 26.122 69.288 60zM672 350v-28c0-37.816-13.216-72.586-35.232-100h274.846c-25.76 74.416-96.546 128-179.614 128zM352 322v28h-60c-83.068 0-153.854-53.584-179.614-128h274.846c-22.016 27.414-35.232 62.184-35.232 100zM102-34c0-16.568 13.432-30 30-30h760c16.568 0 30 13.432 30 30v68h-820zM921.974 162h-819.948c-0.006-0.666-0.026-1.332-0.026-2v-66h820v66c0 0.668-0.018 1.334-0.026 2z" />
<glyph unicode="&#xe91e;" glyph-name="customs" d="M324.991 254.899c0-54.153-43.9-98.052-98.052-98.052s-98.052 43.9-98.052 98.052c0 54.153 43.9 98.052 98.052 98.052s98.052-43.9 98.052-98.052zM800.819 402.175c5.423 14.762 8.201 30.365 8.201 46.094-0.023 73.837-59.898 133.672-133.735 133.649-15.698-0.006-31.272-2.775-46.011-8.183v-250.917c69.286-25.457 146.089 10.071 171.546 79.357zM392.916 701.663l-123.941-162.739c-3.069-4.002-7.365-6.885-12.231-8.209l-207.374-56.635c-29.030-7.943-49.212-34.25-49.369-64.343v-75.693c0.3-36.824 30.348-66.457 67.172-66.245h16.516c6.842 79.117 76.528 137.708 155.645 130.863 69.626-6.024 124.842-61.237 130.863-130.863h213.312v471.955h-113.736c-30.139-0.097-58.528-14.167-76.857-38.091zM963.621 487.819c-9.965 0.941-18.197 8.178-20.406 17.94-7.059 32.622-20.131 63.642-38.549 91.476-5.603 8.412-5.020 19.505 1.43 27.288l38.386 46.38-46.689 47.281-46.18-38.254c-7.68-6.376-18.606-7.036-26.999-1.633-28.003 18.323-59.095 31.429-91.765 38.68-9.717 2.054-16.982 10.174-17.943 20.060l-5.784 59.924h-79.849v-175.301c95.767 25.417 194.008-31.61 219.425-127.379 25.417-95.767-31.61-194.008-127.379-219.425-30.159-8.006-61.886-8.006-92.048 0v-175.816h79.849l5.795 60.19c0.952 9.923 8.203 18.094 17.943 20.217 32.625 7.059 63.651 20.134 91.488 38.552 8.412 5.603 19.507 5.020 27.288-1.43l46.289-38.328 47.482 47.482-38.328 46.286c-6.356 7.694-6.994 18.618-1.576 26.999 18.36 27.997 31.507 59.086 38.8 91.765 2.151 9.739 10.334 16.985 20.263 17.94l59.438 5.781v67.533l-60.379 5.795z" />
<glyph unicode="&#xe91f;" glyph-name="office" d="M185.090 589.82c102.058 0 185.090 83.032 185.090 185.090s-83.032 185.090-185.090 185.090-185.090-83.032-185.090-185.090 83.032-185.090 185.090-185.090zM185.090 920c80.002 0 145.090-65.088 145.090-145.090s-65.088-145.090-145.090-145.090-145.090 65.088-145.090 145.090 65.088 145.090 145.090 145.090zM201.002 730.948c3.904-3.89 9.012-5.834 14.12-5.834 5.128 0 10.26 1.96 14.166 5.88 7.796 7.824 7.776 20.488-0.046 28.286l-24.016 23.936v88.784c0 11.044-8.956 20-20 20s-20-8.956-20-20v-97.090c0-5.316 2.118-10.414 5.88-14.166l29.896-29.796zM1004 296h-123.094c-16.92 24.068-42.344 41.116-71.342 47.456l-87.928 19.226c35.982 24.268 59.694 65.404 59.694 111.976v76.512c0 74.424-60.548 134.972-134.972 134.972s-134.972-60.548-134.972-134.972v-76.512c0-46.512 23.65-87.606 59.556-111.886l-87.872-19.278c-3.754-0.824-7.444-1.834-11.070-3.004v165.51c0 11.044-8.956 20-20 20h-136c-11.044 0-20-8.956-20-20s8.956-20 20-20h116v-280h-136v100c0 33.084-26.916 60-60 60s-60-26.916-60-60v-100h-136v280h116c11.044 0 20 8.956 20 20s-8.956 20-20 20h-136c-11.044 0-20-8.956-20-20v-320c0-11.044 8.956-20 20-20h156v-38h-2c-34.188 0-62-27.812-62-62v-10h-92c-11.044 0-20-8.956-20-20v-80c0-11.044 8.956-20 20-20h984c11.044 0 20 8.956 20 20v320c0 11.044-8.956 20-20 20zM882.358 56h-114.358v40h216v-40h-101.642zM984 136h-216v40h216v-40zM984 216h-216v40h101.748c0.060 0 0.12-0.012 0.178-0.012 0.062 0 0.126 0.012 0.188 0.012h113.886v-40zM551.384 551.168c0 52.368 42.606 94.972 94.972 94.972 49.866 0 90.878-38.628 94.684-87.534l-46.492 27.314c-8.422 4.95-19.186 3.088-25.46-4.398-20.252-24.17-49.954-38.034-81.488-38.034h-36.214v7.68zM551.384 503.49h36.216c37.65 0 73.4 14.358 100.41 39.88l53.32-31.326v-37.388c0-52.368-42.606-94.972-94.972-94.972s-94.972 42.606-94.972 94.972v28.834zM677.688 343.394l-31.63-84.588-31.688 84.74c10.26-2.504 20.966-3.862 31.986-3.862 10.788 0 21.27 1.308 31.332 3.71zM452 166c11.044 0 20 8.956 20 20v111.246c6.17 3.252 12.748 5.664 19.64 7.176l87.48 19.192 48.206-128.914c2.922-7.814 10.388-12.994 18.732-12.994s15.81 5.18 18.732 12.996l48.208 128.922 88.022-19.246c7.726-1.688 15.058-4.548 21.804-8.376h-74.824c-11.044 0-20-8.956-20-20v-220h-297.642v110h21.642zM390.358 166v-110h-30.358v10c0 34.188-27.812 62-62 62h-2v38h94.358zM216 306c0 11.028 8.972 20 20 20s20-8.972 20-20v-178h-40v178zM152 66c0 12.13 9.87 22 22 22h124c12.13 0 22-9.87 22-22v-10h-168v10zM984-24h-944v40h944v-40zM221.86 520.14c-3.72-3.72-5.86-8.88-5.86-14.14s2.138-10.42 5.86-14.138c3.72-3.72 8.88-5.862 14.14-5.862s10.42 2.14 14.138 5.862c3.722 3.718 5.862 8.878 5.862 14.138s-2.14 10.42-5.862 14.14c-3.718 3.72-8.878 5.86-14.138 5.86s-10.42-2.138-14.14-5.86z" />
<glyph unicode="&#xe920;" glyph-name="gps2" d="M503.316 928.5c-183.996 0-333.691-149.695-333.691-333.691 0-231.264 334.020-626.309 334.020-626.309s333.363 406.418 333.363 626.309c0 183.996-149.689 333.691-333.691 333.691zM603.998 497.104c-27.762-27.756-64.219-41.637-100.682-41.637-36.457 0-72.926 13.881-100.676 41.637-55.518 55.512-55.518 145.84 0 201.357 26.883 26.895 62.643 41.707 100.676 41.707s73.787-14.818 100.682-41.707c55.518-55.518 55.518-145.846 0-201.357z" />
<glyph unicode="&#xe921;" glyph-name="alarm" d="M243.414 801.708l-60.16 60.586c-140.586-139.648-140.586-240.853-140.586-371.626h42.666l42.667 2.688c0 124.928 0 193.749 115.413 308.352zM840.704 862.294l-60.070-60.586c115.366-114.603 115.366-183.424 115.366-311.040l85.338 2.688c0 128.085 0 229.29-140.634 368.938zM512.001 21.338c26.424-0.038 52.201 8.166 73.749 23.456 21.548 15.296 37.796 36.922 46.486 61.875h-240.47c8.69-24.954 24.938-46.579 46.486-61.875 21.548-15.29 47.325-23.494 73.749-23.456zM810.669 337.665v195.669c0 137.259-93.229 252.886-219.521 287.659-12.502 31.488-43.051 53.675-79.147 53.675s-66.645-22.187-79.147-53.675c-126.336-34.773-219.52-150.4-219.52-287.659v-195.669l-72.832-72.833c-3.969-3.955-7.118-8.653-9.263-13.83s-3.246-10.733-3.238-16.333v-42.669c0-11.315 4.495-22.17 12.497-30.17s18.854-12.493 30.17-12.493h682.669c11.315 0 22.163 4.493 30.17 12.493 8 8 12.493 18.854 12.493 30.17v42.669c0.006 5.6-1.088 11.155-3.238 16.333-2.144 5.178-5.293 9.875-9.261 13.83l-72.832 72.833z" />
<glyph unicode="&#xe922;" glyph-name="light" d="M777.569 519.295c0 36.128-118.912 65.408-265.569 65.408s-265.551-29.28-265.551-65.408l-73.52-384.142c-0.512-1.398-0.798-2.867-0.848-4.352v-65.408c0.016-36.096 152.208-65.393 339.919-65.393 187.745 0 339.922 29.297 339.922 65.393v65.408c-0.036 1.485-0.317 2.954-0.835 4.352l-73.518 384.142zM650.097 179.533l-108.529 66.836-29.568-121.364-29.567 121.344-108.528-66.831 65.136 111.375-118.24 30.336 118.24 30.321-65.136 111.41 108.528-66.866 29.567 121.362 29.568-121.311 108.529 66.83-65.121-111.39 118.226-30.336-118.226-30.356 65.121-111.36zM885.12 818.319l-118.83-182.784 193.085 107.936-74.255 74.848zM138.912 818.319l-74.272-74.848 193.088-107.936-118.816 182.784zM32 584.769v-87.568l179.792 25.76-179.792 61.808zM812.227 522.961l179.773-25.76v87.568l-179.773-61.808zM387.44 896l-96.767-15.584 120.864-219.888-24.096 235.472zM636.575 896l-24.095-235.472 120.863 219.888-96.768 15.584z" />
<glyph unicode="&#xe923;" glyph-name="sherif" d="M1024 857.6l-102.4 102.4c-58.88-32.768-133.12-51.2-204.8-51.2s-146.432 18.944-204.8 51.2c-58.368-32.256-133.12-51.2-204.8-51.2s-145.92 18.432-204.8 51.2l-102.4-102.4c0 0 102.4-102.4 102.4-204.8s-102.4-307.2-102.4-409.6c0-204.8 512-307.2 512-307.2s512 102.4 512 307.2c0 102.4-102.4 307.2-102.4 409.6s102.4 204.8 102.4 204.8zM668.16 220.16l-157.696 95.232-157.184-95.232 41.984 179.2-139.264 119.808 183.296 15.872 71.168 168.96 71.68-168.448 183.296-15.872-139.264-119.808 41.984-179.712z" />
<glyph unicode="&#xe924;" glyph-name="dron" d="M981.331 874.667h-213.333c-23.552 0-42.667-19.115-42.667-42.667s19.115-42.667 42.667-42.667h64v-86.4c-32.597-4.736-58.197-30.336-62.933-62.933h-514.133c-4.736 32.597-30.336 58.197-62.933 62.933v86.4h64c23.552 0 42.667 19.115 42.667 42.667s-19.115 42.667-42.667 42.667h-213.333c-23.552 0-42.667-19.115-42.667-42.667s19.115-42.667 42.667-42.667h64v-86.4c-36.096-5.248-64-36.096-64-73.6v-64c0-41.173 33.493-74.667 74.667-74.667h64c37.504 0 68.352 27.904 73.6 64h86.4v-32c0-64.725 52.608-117.333 117.333-117.333h10.667v-85.333h-96c-41.173 0-74.667-33.493-74.667-74.667v-149.333c0-41.173 33.493-74.667 74.667-74.667h277.333c41.173 0 74.667 33.493 74.667 74.667v149.333c0 41.173-33.493 74.667-74.667 74.667h-96v85.333h10.667c64.725 0 117.333 52.608 117.333 117.333v32h86.4c5.248-36.096 36.053-64 73.6-64h64c41.173 0 74.667 33.493 74.667 74.667v64c0 37.504-27.904 68.352-64 73.6v86.4h64c23.552 0 42.667 19.115 42.667 42.667s-19.115 42.667-42.667 42.667zM575.998 170.667c0-35.328-28.672-64-64-64s-64 28.672-64 64 28.672 64 64 64 64-28.672 64-64z" />
</font>
</defs>
</svg>
